<?xml version="1.0" standalone="no"?>
<!DOCTYPE svg PUBLIC "-//W3C//DTD SVG 1.1//EN" "http://www.w3.org/Graphics/SVG/1.1/DTD/svg11.dtd" >
<svg xmlns="http://www.w3.org/2000/svg">
<metadata>Generated by IcoMoon</metadata>
<defs>
<font id="icomoon" horiz-adv-x="1024">
<font-face units-per-em="1024" ascent="960" descent="-64" />
<missing-glyph horiz-adv-x="1024" />
<glyph unicode="&#x20;" horiz-adv-x="512" d="" />
<glyph unicode="&#xe900;" glyph-name="arrow-down" d="M520.533 368.341l245.769 250.325 61.431-62.571-307.2-312.896-307.2 312.896 61.431 62.57 245.769-250.325z" />
<glyph unicode="&#xe901;" glyph-name="arrow-up" d="M520.533 493.525l-245.769-250.325-61.431 62.571 307.2 312.896 307.2-312.896-61.431-62.571-245.769 250.325z" />
<glyph unicode="&#xe902;" glyph-name="arrow-right" d="M600.201 448.009l-250.325 245.769 62.57 61.431 312.896-307.2-312.896-307.2-62.57 61.431 250.325 245.769z" />
<glyph unicode="&#xe903;" glyph-name="arrow-left" d="M389.682 448.009l250.326-245.769-62.571-61.431-312.896 307.2 312.896 307.2 62.571-61.431-250.326-245.769z" />
<glyph unicode="&#xe904;" glyph-name="search" d="M835.174 204.681l-53.948 53.888c-11.255 11.247-13.623 28.659-5.542 42.359 36.898 62.562 53.555 138.351 40.243 218.586-23.138 139.444-138.304 249.68-278.716 267.215-211.683 26.434-390.4-152.087-363.937-363.535 17.554-140.258 127.912-255.296 267.511-278.409 80.324-13.299 156.194 3.337 218.825 40.196 13.722 8.073 31.147 5.709 42.406-5.538l56.444-56.384c10.931-10.927 25.276-16.393 39.607-16.393 15.693 0 31.403 6.549 42.628 19.657 19.409 22.665 15.595 57.267-5.521 78.357zM285.691 428.719c-24.049 145.297 100.53 269.737 245.987 245.714 88.124-14.553 159.198-85.551 173.769-173.577 24.051-145.301-100.527-269.739-245.986-245.717-88.122 14.558-159.197 85.555-173.769 173.581z" />
<glyph unicode="&#xe905;" glyph-name="hot" d="M786.641 604.748c-3.268 3.077-7.27 5.377-11.669 6.709s-9.075 1.659-13.636 0.952c-4.531-0.712-8.815-2.422-12.506-4.99s-6.682-5.921-8.73-9.786c-8.896-14.48-19.75-27.816-32.286-39.674-2.953 71.933-30.959 140.959-79.701 196.455-27.268 26.339-60.237 46.859-96.67 60.171s-75.482 19.106-114.5 16.988c-5.262-0.013-10.422-1.369-14.929-3.922s-8.195-6.21-10.668-10.579c-2.336-4.279-3.431-9.060-3.176-13.864s1.853-9.459 4.63-13.497c4.073-5.746 92.499-133.797-8.435-248.989-25.597 18.879-54.684 48.703-54.684 71.96-0.038 6.127-2.262 12.064-6.314 16.861s-9.699 8.175-16.035 9.594c-6.336 1.419-12.995 0.797-18.911-1.767s-10.745-6.922-13.714-12.375c-39.731-81.115-60.652-169.256-61.374-258.566 0-235.857 186.448-297.143 194.302-300.975 5.637-1.801 11.726-1.933 17.445-0.375 5.721 1.557 10.794 4.727 14.536 9.084s5.973 9.685 6.391 15.275c0.418 5.585-0.994 11.157-4.049 15.966-27.594 46.605-38.507 100.331-31.124 153.22 17.918-32.683 44.585-60.412 77.37-80.439 6.17-3.849 13.666-5.338 20.962-4.169 7.292 1.169 13.841 4.911 18.308 10.462 40.222 55.36 59.294 121.916 54.101 188.791 30.541-44.049 53.811-126.409 11.051-273.613-1.105-4.023-1.22-8.235-0.337-12.305 0.883-4.075 2.743-7.906 5.431-11.204 2.692-3.294 6.148-5.973 10.103-7.825s8.307-2.833 12.727-2.867c2.603-0.397 5.252-0.397 7.855 0 66.726 21.013 124.548 61.568 165.005 115.725 40.461 54.157 61.427 119.074 59.836 185.25 0 170.462-59.917 231.751-66.607 238.318z" />
<glyph unicode="&#xe906;" glyph-name="new" d="M935.317 460.497l-50.462 87.415v100.922c0 8.932-4.766 17.187-12.501 21.652l-87.411 50.46-50.458 87.41c-4.467 7.735-12.719 12.5-21.649 12.5h-100.924l-87.415 50.464c-7.731 4.463-17.259 4.465-24.998 0l-87.41-50.462h-100.922c-8.931 0-17.187-4.765-21.652-12.502l-50.458-87.41-87.412-50.46c-7.737-4.465-12.502-12.719-12.502-21.652v-100.922l-50.461-87.415c-4.465-7.735-4.465-17.259 0-24.994l50.46-87.415v-100.919c0-8.934 4.765-17.186 12.502-21.653l87.412-50.458 50.46-87.411c4.465-7.735 12.719-12.501 21.652-12.501h100.923l87.413-50.462c3.866-2.231 8.183-3.349 12.497-3.349 4.318 0 8.631 1.118 12.501 3.349l87.411 50.462h100.919c8.934 0 17.186 4.766 21.653 12.497l50.458 87.411 87.411 50.462c7.735 4.463 12.501 12.719 12.501 21.649v100.924l50.462 87.411c4.467 7.74 4.467 17.263 0 24.998zM389.722 367.667c0-11.017-7.212-20.732-17.755-23.927-10.623-3.213-21.976 0.96-28.047 10.061l-61.31 91.964v-78.097c0-13.807-11.194-24.998-25-24.998s-25 11.191-25 24.998v160.666c0 11.017 7.212 20.734 17.755 23.927 10.545 3.19 21.935-0.893 28.047-10.060l61.31-91.965v78.097c0 13.807 11.194 25.001 25 25.001s25-11.193 25-25.001v-160.666zM498.611 472.998c13.807 0 25.003-11.191 25.003-24.998s-11.196-24.998-25.003-24.998h-28.553v-30.336h55.33c13.807 0 25.003-11.191 25.003-24.998s-11.196-24.998-25.003-24.998h-80.333c-13.807 0-24.999 11.191-24.999 24.998v160.666c0 13.807 11.192 25.001 24.999 25.001h80.333c13.807 0 25.003-11.193 25.003-25.001s-11.196-24.998-25.003-24.998h-55.33v-30.336h28.553zM804.032 522.27l-40.166-160.666c-2.697-10.786-12.19-18.496-23.296-18.923-0.32-0.009-0.644-0.017-0.964-0.017-10.722 0-20.301 6.857-23.714 17.097l-29.837 89.515-29.837-89.515c-3.516-10.547-13.572-17.476-24.678-17.079-11.106 0.427-20.599 8.137-23.296 18.923l-40.166 160.666c-3.345 13.395 4.796 26.969 18.193 30.315 13.397 3.355 26.965-4.793 30.315-18.19l19.345-77.38 26.406 79.221c3.401 10.208 12.954 17.095 23.714 17.095s20.314-6.886 23.718-17.095l26.406-79.221 19.345 77.38c3.349 13.395 16.922 21.542 30.315 18.19 13.402-3.346 21.547-16.918 18.197-30.315z" />
<glyph unicode="&#xe907;" glyph-name="clock" d="M643.405 260.821l55.753 55.753-147.341 147.341v183.183h-79.646v-215.042l171.234-171.234zM511.991 49.762c-55.087 0-106.855 10.453-155.305 31.36s-90.596 49.28-126.436 85.12c-35.84 35.84-64.213 77.986-85.12 126.438-20.907 48.448-31.36 100.22-31.36 155.307s10.453 106.855 31.36 155.305c20.907 48.451 49.28 90.596 85.12 126.436s77.985 64.213 126.436 85.12c48.45 20.907 100.218 31.36 155.305 31.36s106.859-10.453 155.307-31.36c48.452-20.907 90.598-49.28 126.438-85.12s64.213-77.985 85.12-126.436c20.907-48.45 31.36-100.218 31.36-155.305s-10.453-106.859-31.36-155.307c-20.907-48.452-49.28-90.598-85.12-126.438s-77.986-64.213-126.438-85.12c-48.448-20.907-100.22-31.36-155.307-31.36zM511.991 129.408c88.273 0 163.439 31.027 225.493 93.086 62.059 62.054 93.086 137.22 93.086 225.493 0 88.271-31.027 163.436-93.086 225.492-62.054 62.057-137.22 93.085-225.493 93.085-88.271 0-163.436-31.028-225.492-93.085s-93.085-137.221-93.085-225.492c0-88.273 31.028-163.439 93.085-225.493 62.056-62.059 137.221-93.086 225.492-93.086z" />
<glyph unicode="&#xe908;" glyph-name="add-circle" d="M512 874.667c-235.273 0-426.667-191.393-426.667-426.667s191.393-426.667 426.667-426.667c235.273 0 426.667 191.394 426.667 426.667s-191.394 426.667-426.667 426.667zM698.667 412.446h-151.113v-151.113c0-19.631-15.923-35.554-35.554-35.554s-35.554 15.923-35.554 35.554v151.113h-151.113c-19.629 0-35.553 15.923-35.553 35.554s15.924 35.554 35.553 35.554h151.113v151.113c0 19.629 15.923 35.553 35.554 35.553s35.554-15.924 35.554-35.553v-151.113h151.113c19.631 0 35.554-15.923 35.554-35.554s-15.923-35.554-35.554-35.554z" />
<glyph unicode="&#xe909;" glyph-name="other" d="M486.859 21.333c-99.094 5.746-189.13 45.255-258.775 107.196l89.104 89.105c46.569-39.424 105.25-64.978 169.671-70.292v-126.009zM192.53 164.085c-61.939 69.643-101.448 159.681-107.196 258.774h126.009c5.315-64.419 30.869-123.1 70.29-169.669l-89.103-89.105zM85.333 473.141c5.748 99.094 45.257 189.13 107.196 258.775l89.103-89.104c-39.421-46.569-64.976-105.25-70.29-169.671h-126.009zM228.084 767.47c69.645 61.939 159.681 101.448 258.775 107.196v-126.009c-64.421-5.315-123.102-30.869-169.671-70.29l-89.104 89.103zM537.141 874.667c99.093-5.748 189.131-45.257 258.774-107.196l-89.105-89.103c-46.569 39.421-105.25 64.976-169.669 70.29v126.009zM831.471 731.916c61.941-69.645 101.45-159.681 107.196-258.775h-126.009c-5.313 64.421-30.868 123.102-70.292 169.671l89.105 89.104zM938.667 422.859c-5.746-99.093-45.255-189.131-107.196-258.774l-89.105 89.105c39.424 46.569 64.978 105.25 70.292 169.669h126.009zM795.915 128.529c-69.643-61.941-159.681-101.45-258.774-107.196v126.009c64.419 5.313 123.1 30.868 169.669 70.292l89.105-89.105zM512 196.591c-138.849 0-251.408 112.56-251.408 251.409s112.56 251.408 251.408 251.408c138.849 0 251.409-112.56 251.409-251.408s-112.56-251.409-251.409-251.409z" />
<glyph unicode="&#xe90a;" glyph-name="battle" d="M757.891 364.208c-16.862 0-32.859-4.71-47.070-12.868l-405.648 480.66h-177.173v-177.173l480.666-405.648c-20.776-36.284-16.060-83.314 14.888-114.261l201.529 201.529c-17.903 17.903-41.774 27.762-67.191 27.762zM382.182 544.234l-169.504 169.503 33.584 33.584 169.503-169.504-33.584-33.584zM496.601 281.771l-116.404 98.111-24.119-28.621c-14.25 8.209-30.299 12.942-47.207 12.942-25.421 0-49.262-9.859-67.168-27.762l201.526-201.529c30.983 30.982 35.677 78.080 14.83 114.381l38.542 32.478zM791.387 235.679l71.839-71.856h75.332v-142.501h-142.501v75.338l-71.856 71.834 67.186 67.186zM275.17 235.679l-71.832-71.856h-75.338v-142.501h142.5v75.332l71.856 71.839-67.186 67.186zM564.426 598.572l196.986 233.428h177.289v-177.29l-246.369-207.895-127.906 151.757zM650.934 577.818l33.582-33.584 169.506 169.503-33.582 33.584-169.506-169.504z" />
<glyph unicode="&#xe90b;" glyph-name="instant" d="M722.916 552.847c14.165 14.166 21.965 33 21.965 53.033s-7.799 38.867-21.965 53.032c-14.62 14.622-33.826 21.932-53.032 21.932s-38.411-7.31-53.032-21.932c-14.165-14.165-21.97-32.998-21.97-53.032s7.805-38.868 21.97-53.033c29.241-29.242 76.823-29.244 106.064 0zM937.671 832.279c3.561-65.233 1.041-204.326-67.044-335.948-45.295-87.57-145.027-202.397-276.099-270.146-0.626 0.802-1.286 1.582-2.020 2.315l-300.001 300c-0.737 0.737-1.518 1.4-2.319 2.025 67.747 131.069 182.574 230.804 270.144 276.098 110.188 56.995 225.609 68.043 298.552 68.043 14.188 0 26.772-0.418 37.393-0.998 22.357-1.218 40.175-19.038 41.392-41.39zM758.272 694.267c-48.737 48.74-128.040 48.735-176.777 0-23.609-23.608-36.612-55-36.612-88.388s13.003-64.779 36.612-88.388c24.371-24.372 56.377-36.555 88.388-36.553 32.006 0.003 64.023 12.188 88.388 36.553 23.609 23.608 36.608 55 36.608 88.388s-12.999 64.78-36.608 88.388zM228.468 638.51l73.929 5.712c-56.903-77.228-94.809-161.054-110.644-245.087l-67.692 10.483c-15.458 2.395-28.466 12.365-34.796 26.672-6.328 14.306-4.957 30.638 3.672 43.688l85.261 128.953c11.377 17.208 29.698 27.99 50.27 29.58zM473.619 60.063l-10.485 67.692c84.035 15.832 167.86 53.737 245.087 110.643l-5.712-73.933c-1.587-20.565-12.368-38.889-29.577-50.267l-128.955-85.259c-7.621-5.040-16.365-7.606-25.17-7.606-6.268 0-12.568 1.303-18.52 3.931-14.305 6.332-24.275 19.337-26.67 34.799zM437.678 174.672c2.35 0 4.713 0.193 7.071 0.586 35.207 5.888 69.14 15.804 101.51 28.78l-278.215 278.218c-12.98-32.368-22.897-66.302-28.783-101.51-2.32-13.881 2.335-28.018 12.283-37.968l155.24-155.238c8.26-8.26 19.408-12.868 30.895-12.868zM128.517 178.762c-4.88-4.881-11.279-7.322-17.677-7.322s-12.797 2.441-17.678 7.322c-9.763 9.762-9.763 25.594 0 35.356l81.622 81.624c9.763 9.762 25.593 9.762 35.355 0 9.763-9.768 9.763-25.594 0-35.356l-81.622-81.624zM284.943 220.939c-9.762 9.762-25.592 9.762-35.355 0l-156.925-156.928c-9.764-9.762-9.764-25.589 0-35.351 4.882-4.881 11.28-7.322 17.678-7.322s12.797 2.441 17.677 7.322l156.924 156.922c9.765 9.762 9.765 25.594 0.002 35.356zM242.765 64.518l81.62 81.618c9.763 9.762 25.593 9.762 35.355 0s9.763-25.589 0-35.356l-81.622-81.618c-4.88-4.881-11.28-7.322-17.677-7.322s-12.795 2.441-17.677 7.322c-9.764 9.762-9.764 25.589 0 35.356z" />
<glyph unicode="&#xe90c;" glyph-name="tables" d="M687.935 610.505h8.323c103.509 0 187.728-80.876 187.728-180.284 0-48.086-19.547-93.342-55.040-127.429-35.493-34.082-82.614-52.855-132.688-52.855h-368.513c-103.51 0-187.726 80.879-187.726 180.285 0 99.408 84.213 180.283 187.727 180.285l8.321-0.001-45.958 91.125c-61.882-7.791-119.077-34.731-163.945-77.819-53.844-51.709-83.498-120.462-83.497-193.59-0.001-73.128 29.653-141.879 83.497-193.591 53.844-51.706 125.434-80.185 201.58-80.185h368.514c76.146 0 147.735 28.479 201.58 80.185 53.845 51.712 83.496 120.462 83.496 193.591 0 73.128-29.65 141.88-83.496 193.589-44.868 43.090-102.064 70.030-163.942 77.819l-45.961-91.125zM441.584 696.341c-4.613 4.878-11.154 7.658-18.014 7.658h-80.575l53.803-106.677c3.654-7.243 3.17-15.782-1.281-22.6-4.449-6.823-12.241-10.961-20.623-10.96l-47.152 0.001c-76.674 0-139.051-59.906-139.051-133.538 0.001-73.634 62.378-133.538 139.051-133.538h368.516c76.675 0 139.048 59.91 139.048 133.538 0 73.632-62.379 133.538-139.048 133.538h-47.155c-8.38 0-16.174 4.141-20.622 10.96s-4.938 15.357-1.28 22.6l53.8 106.677h-80.572c-6.861 0-13.42-2.791-18.017-7.658-18.251-19.286-43.261-29.931-70.411-29.93-27.154 0-52.16 10.627-70.416 29.929zM682.359 461.387v-62.327c0-12.909-10.894-23.371-24.337-23.371s-24.337 10.462-24.337 23.371v62.328c0 12.909 10.894 23.373 24.337 23.373s24.337-10.464 24.337-23.373zM585.011 461.388v-62.328c0-12.909-10.894-23.371-24.338-23.371-13.442 0-24.338 10.462-24.338 23.371v62.328c0 12.909 10.896 23.373 24.338 23.373 13.438 0.001 24.338-10.464 24.338-23.373zM487.659 461.388v-62.327c0-12.91-10.896-23.372-24.338-23.372s-24.338 10.462-24.338 23.372l-0.001 62.327c0 12.909 10.896 23.373 24.338 23.373 13.441-0.001 24.336-10.465 24.338-23.373zM390.307 461.388v-62.328c0-12.909-10.896-23.371-24.338-23.371s-24.338 10.462-24.338 23.371v62.328c0 12.909 10.896 23.373 24.338 23.373s24.338-10.464 24.338-23.373z" />
<glyph unicode="&#xe90d;" glyph-name="game_cards" d="M309.313 508.322c8.952 7.151 19.382 12.228 30.536 14.857s22.752 2.748 33.957 0.346c0.288 11.413 3.077 22.624 8.17 32.842s12.368 19.194 21.309 26.293c10.138 7.89 22.025 13.226 34.659 15.557v58.033c0 48.384 35.763 88.616 82.313 95.449l-62.11 78.769c-9.783 12.469-24.119 20.544-39.855 22.449-7.776 0.925-15.658 0.305-23.194-1.824s-14.577-5.725-20.719-10.583l-309.228-243.968c-12.307-9.839-20.238-24.134-22.074-39.783s2.572-31.392 12.267-43.813l356.096-451.345c6.853-8.546 15.95-15.223 26.13-18.927 2.057-0.875 4.267-1.318 6.498-1.297 0.73 0 1.655 0 2.402 0.196-5.619 12.599-8.525 26.24-8.525 40.034v262.106c-52.283 5.905-116.224 23.155-141.627 55.236-6.332 8.030-11.020 17.233-13.793 27.076s-3.581 20.139-2.374 30.293c1.207 10.155 4.404 19.972 9.408 28.894 5.004 8.917 11.718 16.785 19.756 23.108zM928.226 715.938h-393.532c-7.838 0.003-15.599-1.54-22.844-4.539-7.241-2.999-13.82-7.395-19.362-12.939-5.538-5.543-9.933-12.125-12.932-19.367-2.995-7.243-4.535-15.005-4.531-22.843v-574.62c-0.021-7.834 1.51-15.595 4.506-22.835 2.991-7.241 7.39-13.815 12.937-19.349 5.547-5.53 12.134-9.911 19.379-12.885 7.249-2.974 15.014-4.484 22.848-4.442h393.549c15.804-0.017 30.967 6.242 42.155 17.404 11.187 11.157 17.489 26.304 17.515 42.108v574.62c0.004 7.838-1.54 15.6-4.54 22.842s-7.394 13.821-12.937 19.363c-5.547 5.542-12.126 9.936-19.366 12.933-7.245 2.996-15.006 4.556-22.844 4.551zM731.362 197.658l-126.229 171.281 126.229 171.462 126.426-171.462-126.426-171.281z" />
<glyph unicode="&#xe90e;" glyph-name="lottery" d="M524.599 391.766c-5.21-3.101-10.83-5.444-16.695-6.963v-247.247c71.066 3.682 138.695 31.74 191.496 79.446l-174.801 174.764zM801.98 431.628h-247.251c-1.52-5.87-3.867-11.489-6.963-16.695l174.768-174.797c47.706 52.797 75.764 120.426 79.446 191.492zM524.288 448.008c0.033 4.309-0.803 8.577-2.454 12.554s-4.088 7.582-7.164 10.596c-6.173 6.095-14.475 9.548-23.151 9.617-6.48 0-12.816-1.921-18.207-5.521-5.386-3.6-9.589-8.716-12.067-14.705-2.482-5.988-3.129-12.575-1.864-18.932 1.262-6.357 4.383-12.198 8.966-16.777 4.583-4.583 10.42-7.705 16.777-8.97 6.357-1.262 12.947-0.614 18.932 1.868 5.988 2.478 11.108 6.676 14.709 12.067s5.521 11.723 5.521 18.203zM525.304 711.786c-4.301-6.348-10.342-11.32-17.4-14.319v-186.249c5.865-1.52 11.485-3.867 16.695-6.963l175.194 175.19c-41.521 37.297-92.34 62.694-147.096 73.513l-27.394-41.172zM610.599 839.889l-38.371-57.654c59.355-14.273 113.84-44.098 157.843-86.408 44.007-42.311 75.948-95.58 92.541-154.327 16.593-58.749 17.236-120.857 1.864-179.937-15.372-59.077-46.207-112.996-89.326-156.209-0.164-0.18-0.213-0.41-0.377-0.59s-0.41-0.213-0.59-0.377c-64.385-64.307-151.663-100.43-242.663-100.43s-178.279 36.123-242.663 100.43c-0.18 0.164-0.41 0.213-0.59 0.377s-0.213 0.41-0.377 0.59c-43.121 43.213-73.952 97.133-89.323 156.213s-14.726 121.188 1.867 179.937c16.593 58.749 48.537 112.018 92.545 154.328s98.493 72.133 157.85 86.404l-38.387 57.654c-93.961-28.549-174.538-89.905-227.047-172.888s-73.458-182.068-59.026-279.205c14.431-97.133 63.282-185.848 137.649-249.983 74.367-64.131 169.301-99.414 267.504-99.414s193.135 35.283 267.506 99.414c74.367 64.135 123.216 152.85 137.646 249.983 14.43 97.137-6.517 196.222-59.027 279.205-52.507 82.983-133.083 144.339-227.045 172.888zM694.157 766.163c-1.618-2.807-4.030-5.072-6.935-6.509s-6.169-1.979-9.384-1.56c-3.211 0.419-6.226 1.781-8.667 3.915-2.437 2.133-4.19 4.941-5.034 8.070-0.84 3.129-0.737 6.436 0.299 9.506s2.961 5.762 5.53 7.739c2.568 1.976 5.665 3.147 8.897 3.364s6.455-0.529 9.265-2.144c3.764-2.173 6.509-5.751 7.635-9.948 1.122-4.197 0.532-8.669-1.638-12.432h0.033zM277.365 777.779c2.718 1.765 5.898 2.685 9.138 2.643s6.396-1.044 9.067-2.879c2.671-1.835 4.737-4.422 5.938-7.431s1.482-6.308 0.809-9.478c-0.674-3.17-2.273-6.069-4.594-8.33s-5.262-3.783-8.448-4.373c-3.186-0.59-6.476-0.222-9.454 1.058s-5.508 3.414-7.273 6.132c-2.365 3.644-3.186 8.077-2.283 12.327s3.457 7.965 7.1 10.332zM121.898 372.875c-3.201-0.508-6.48-0.057-9.423 1.298-2.943 1.36-5.418 3.555-7.112 6.32-1.694 2.761-2.53 5.964-2.403 9.204 0.127 3.236 1.211 6.365 3.115 8.987s4.544 4.62 7.585 5.743c3.040 1.122 6.345 1.315 9.496 0.561 3.151-0.758 6.007-2.433 8.207-4.813s3.644-5.358 4.151-8.557c0.679-4.293-0.374-8.675-2.927-12.19-2.553-3.518-6.398-5.874-10.689-6.554zM140.608 586.304c-2.961 1.317-5.465 3.482-7.195 6.223s-2.609 5.932-2.525 9.171c0.084 3.24 1.127 6.381 2.996 9.028s4.482 4.68 7.508 5.842c3.025 1.162 6.327 1.4 9.488 0.686s6.039-2.35 8.27-4.701c2.231-2.351 3.715-5.31 4.264-8.503s0.138-6.479-1.179-9.439c-1.767-3.969-5.038-7.073-9.094-8.631s-8.564-1.441-12.533 0.325zM222.446 183.693c-2.408-2.171-5.405-3.576-8.612-4.039-3.207-0.467-6.48 0.029-9.405 1.425-2.925 1.393-5.371 3.625-7.028 6.41s-2.451 5.997-2.281 9.232c0.17 3.236 1.295 6.349 3.234 8.946s4.605 4.563 7.66 5.644c3.055 1.081 6.362 1.229 9.503 0.434 3.141-0.799 5.975-2.511 8.143-4.919 2.906-3.228 4.411-7.479 4.184-11.817s-2.168-8.409-5.396-11.317zM409.813 79.79c-0.839-3.129-2.588-5.943-5.025-8.077s-5.452-3.502-8.665-3.924c-3.212-0.422-6.478 0.119-9.384 1.552s-5.321 3.695-6.941 6.5c-1.62 2.81-2.371 6.033-2.159 9.265s1.379 6.332 3.352 8.901c1.973 2.572 4.663 4.497 7.732 5.542 3.069 1.040 6.377 1.147 9.507 0.307 2.078-0.557 4.027-1.516 5.734-2.826s3.139-2.945 4.215-4.809c1.076-1.864 1.774-3.92 2.056-6.054 0.279-2.134 0.135-4.301-0.422-6.377zM612.975 74.056c-3.080-1.004-6.39-1.069-9.511-0.188-3.117 0.881-5.906 2.662-8.012 5.128-2.105 2.462-3.432 5.497-3.813 8.712-0.381 3.219 0.201 6.48 1.675 9.368 1.47 2.884 3.764 5.272 6.59 6.857 2.826 1.581 6.062 2.29 9.294 2.036 3.228-0.254 6.312-1.458 8.856-3.465s4.436-4.723 5.439-7.807c1.343-4.125 0.995-8.614-0.967-12.485s-5.378-6.803-9.503-8.155h-0.049zM797.098 200.618c-2.028-2.54-4.76-4.415-7.852-5.399-3.097-0.979-6.414-1.020-9.531-0.111-3.117 0.905-5.894 2.716-7.979 5.206-2.085 2.486-3.383 5.538-3.731 8.765s0.27 6.488 1.778 9.363c1.507 2.875 3.834 5.239 6.685 6.787 2.851 1.552 6.099 2.22 9.335 1.921 3.232-0.299 6.304-1.552 8.823-3.596 3.355-2.724 5.493-6.664 5.96-10.961 0.463-4.297-0.791-8.602-3.486-11.977zM834.781 604.555c-2.888-1.471-6.148-2.053-9.363-1.672-3.219 0.381-6.25 1.707-8.716 3.812s-4.248 4.892-5.128 8.011c-0.881 3.119-0.815 6.428 0.188 9.51 0.999 3.082 2.892 5.797 5.435 7.804 2.548 2.006 5.628 3.212 8.86 3.467s6.463-0.455 9.29-2.039c2.83-1.583 5.124-3.969 6.595-6.856 0.983-1.924 1.577-4.024 1.749-6.179 0.168-2.155-0.090-4.322-0.762-6.376s-1.745-3.956-3.154-5.594c-1.409-1.638-3.129-2.982-5.059-3.953l0.066 0.066zM864.567 392.307c-3.224 0.34-6.271 1.63-8.761 3.703-2.486 2.073-4.305 4.837-5.222 7.946-0.918 3.105-0.897 6.414 0.066 9.511 0.963 3.092 2.822 5.829 5.341 7.868 2.519 2.036 5.583 3.281 8.81 3.58 3.224 0.295 6.468-0.373 9.314-1.921 2.847-1.544 5.169-3.899 6.681-6.767 1.507-2.867 2.13-6.119 1.794-9.339-0.225-2.142-0.868-4.219-1.896-6.111s-2.421-3.564-4.092-4.915c-1.675-1.356-3.6-2.367-5.665-2.978s-4.227-0.807-6.369-0.578zM491.52 726.531c1.294-0.022 2.572 0.282 3.715 0.883 1.147 0.601 2.122 1.481 2.839 2.557l78.987 118.585c-56.345 12.059-114.606 12.059-170.95 0l78.856-118.486c0.705-1.096 1.675-1.996 2.822-2.614 1.143-0.619 2.429-0.937 3.731-0.924zM722.993 656.311l-175.227-175.306c3.092-5.181 5.435-10.772 6.963-16.613h247.398c-3.535 71.168-31.482 138.943-79.135 191.919zM180.962 464.392h247.398c1.372 5.198 3.383 10.207 5.98 14.909l-181.026 169.604c-43.646-51.937-69.061-116.749-72.351-184.513zM435.274 414.933c-3.097 5.206-5.444 10.826-6.963 16.695h-247.25c3.681-71.066 31.738-138.695 79.446-191.492l174.768 174.797zM475.136 384.803c-5.865 1.52-11.485 3.863-16.695 6.963l-174.8-174.764c52.802-47.706 120.429-75.764 191.496-79.446v247.247zM475.136 511.218v186.265c-7.090 3.040-13.148 8.063-17.449 14.467l-27.329 40.959c-58.123-11.447-111.75-39.306-154.533-80.28l180.797-169.358c5.722 3.592 11.969 6.275 18.514 7.946z" />
<glyph unicode="&#xe90f;" glyph-name="slots" d="M345.39 726.751c5.129 31.458 19.189 60.283 39.741 84.234-50.941-1.088-95.208-25.461-118.822-61.084 15.129-4.108 32.028-9.169 48.505-14.102 10.051-3.011 20.646-6.182 30.575-9.048zM533.165 489.053c-13.1 0-23.759-10.76-23.759-23.986v-23.986c0-13.226 10.658-23.986 23.759-23.986s23.758 10.76 23.758 23.986v23.986c0 13.226-10.658 23.986-23.758 23.986zM196.581 658.399c50.178-43.075 80.243-75.401 95.464-103.613 51.673-29.701 112.716-49.805 177.277-57.777 11.676 23.692 35.902 40.017 63.844 40.017 27.949 0 52.182-16.333 63.856-40.034 64.842 7.973 125.804 27.934 177.584 57.825 21.538 42.006 55.842 70.297 78.12 88.654 8.71 7.174 15.582 12.841 20.452 18.223 16.708 18.48 11.878 32.76 7.509 39.628-11.924 18.749-36.608 12.43-51.354 8.654-14.62-3.742-33.064-9.721-52.588-16.049-31.38-10.173-70.428-22.833-87.541-23.392-22.426-0.713-45.386 7.506-69.695 16.224-26.18 9.39-53.249 19.098-83.133 19.098-30.094 0-57.907-10.034-84.803-19.739-28.727-10.362-55.856-20.151-80.812-15.383-15.969 3.051-43.14 11.188-69.419 19.059-21.422 6.415-43.574 13.049-60.7 17.238-20.203 4.946-45.346 11.094-56.295-9.308-4.83-9.001-6.628-23.13 12.234-39.324zM896.199 416.388c-23.831 39.567-55.438 73.923-91.858 100.439-55.836-33.4-121.407-56.161-191.158-66.075 37.979-36.332 60.951-96.772 60.951-163.104 0-6.212-0.21-12.516-0.626-18.722-0.848-12.663-11.292-22.369-23.683-22.369-0.54 0-1.081 0.023-1.627 0.057-13.090 0.893-22.983 12.334-22.101 25.549 0.347 5.137 0.518 10.348 0.518 15.485 0 44.47-12.698 86.050-33.729 114.224-12.732-19.692-34.737-32.748-59.718-32.748-24.967 0-46.962 13.039-59.697 32.715-21.026-28.226-33.754-69.903-33.754-114.191 0-3.994 0.106-8.061 0.315-12.1 0.688-13.227-9.381-24.513-22.483-25.207-0.423-0.023-0.844-0.034-1.262-0.034-12.553 0-23.042 9.927-23.706 22.733-0.251 4.87-0.38 9.785-0.38 14.609 0 66.099 23.016 126.748 60.968 163.11-48.267 6.824-94.398 19.707-137.443 38.456-18.802 8.19-36.665 17.36-53.556 27.447-36.808-27.427-69.152-63.157-92.702-103.212-36.743-62.494-49.661-129.777-36.374-189.459 13.649-61.303 54.306-111.969 117.574-146.529 68.21-37.257 162.098-56.127 279.204-56.127 3.361 0 6.753 0.017 10.151 0.046 118.508 1.087 213.085 21.538 281.107 60.797 61.394 35.43 100.506 86.357 113.112 147.28 12.294 59.403-1.223 125.787-38.042 186.932zM536.375 753.83c38.077 0 70.464-11.617 99.040-21.867 19.359-6.942 37.649-13.5 51.046-13.5 0.319 0 0.637 0.006 0.95 0.015-10.132 64.060-72.459 113.522-147.602 113.522-75.282 0-137.697-49.641-147.659-113.873 12.083 1.858 27.391 7.38 43.424 13.165 29.292 10.567 62.475 22.537 100.801 22.537zM762.214 739.601c17.22 5.581 33.559 10.869 47.918 14.855-24.28 33.131-66.907 55.489-115.649 56.53 19.746-23.005 33.496-50.507 39.094-80.519 10.775 3.342 21.18 6.715 28.638 9.134z" />
<glyph unicode="&#xe910;" glyph-name="nohu" d="M262.263 626.469c38.179 0 69.129 31.785 69.129 70.994s-30.95 70.994-69.129 70.994c-38.179 0-69.129-31.785-69.129-70.994s30.95-70.994 69.129-70.994zM761.907 625.414c38.746 0 70.157 32.257 70.157 72.049s-31.411 72.048-70.157 72.048c-38.746 0-70.153-32.257-70.153-72.048s31.407-72.049 70.153-72.049zM512.085 705.37c39.787 0 72.038 33.123 72.038 73.981s-32.252 73.981-72.038 73.981c-39.787 0-72.038-33.123-72.038-73.981s32.252-73.981 72.038-73.981zM707.153 474.112h-390.135c-26.522 0-47.911-23.194-47.911-51.661h485.956c0 28.467-21.389 51.661-47.91 51.661zM403.258 0h217.482c11.123 0 20.194 9.314 20.194 20.736v352.158c0 11.422-9.071 20.736-20.194 20.736h-217.482c-11.122 0-20.191-9.314-20.191-20.736v-352.158c0.171-11.597 9.069-20.736 20.191-20.736zM447.061 281.165c0 13.53 10.782 24.602 23.957 24.602h82.133c13.175 0 23.957-11.072 23.957-24.602 0-3.866-0.858-7.556-2.569-11.072l-82.133-168.7c-5.645-12.301-20.019-17.395-31.996-11.597-11.981 5.798-16.943 20.561-11.294 32.862 0.171 0.175 0.171 0.525 0.341 0.704l64.849 133.026h-43.29c-13.175 0.175-23.957 11.068-23.957 24.777zM700.992 0h217.485c11.119 0 20.19 9.314 20.19 20.736v352.158c0 11.422-9.071 20.736-20.19 20.736h-217.485c-11.123 0-20.19-9.314-20.19-20.736v-352.158c0.171-11.597 9.067-20.736 20.19-20.736zM744.798 281.165c0 13.53 10.778 24.602 23.953 24.602h82.138c13.175 0 23.953-11.072 23.953-24.602 0-3.866-0.853-7.556-2.564-11.072l-82.138-168.7c-5.645-12.301-20.019-17.395-31.996-11.597s-16.939 20.561-11.294 32.862c0.171 0.175 0.171 0.525 0.341 0.704l64.853 133.026h-43.294c-13.175 0.175-23.953 11.068-23.953 24.777zM105.524 0h217.483c11.122 0 20.191 9.314 20.191 20.736v352.158c0 11.422-9.069 20.736-20.191 20.736h-217.483c-11.122 0-20.191-9.314-20.191-20.736v-352.158c0.171-11.597 9.069-20.736 20.191-20.736zM149.329 281.165c0 13.53 10.78 24.602 23.956 24.602h82.133c13.176 0 23.956-11.072 23.956-24.602 0-3.866-0.855-7.556-2.566-11.072l-82.134-168.7c-5.647-12.301-20.020-17.395-31.998-11.597s-16.94 20.561-11.293 32.862c0.171 0.175 0.171 0.525 0.342 0.704l64.851 133.026h-43.291c-13.175 0.175-23.956 11.068-23.956 24.777zM304.527 471.654c4.107 0.525 8.213 0.879 12.491 0.879h390.135c4.105 0 8.384-0.354 12.493-0.879l27.375 128.631c-26.351 4.393-49.792 19.682-64.678 42.526l-74.436-40.241-54.242 83.646c-26.18-13.004-56.806-13.004-83.157 0l-54.243-83.646-74.434 40.241c-14.887-22.845-38.329-38.309-64.68-42.526l27.378-128.631z" />
<glyph unicode="&#xe911;" glyph-name="fishing" d="M117.657 216.218h85.886c9.785 0 19.57 0 29.356 0 17.333 0 27.957 8.641 29.244 26.158 1.342 16.060-10.121 27.438-29.356 28.217-21.639 0.836-43.335 0-64.973 0-23.037 0-46.186-0.95-69.111 0.722-6.934 0.449-17.613 7.083-19.291 12.999-13.084 45.898-24.882 91.739-35.954 137.747-3.97 16.341 7.66 25.598 20.465 32.792 63.34 36.464 135.443 55.030 208.564 53.706 24.044-0.447 35.786 5.577 46.466 28.609 35.227 76.236 97.293 119.959 179.824 135.073 28.852 5.187 40.818-9.091 37.855-38.369-3.635-35.86-4.585-71.998-6.207-108.025-0.503-11.655 5.032-17.288 17.948-17.121 50.326 0.669 100.65-0.335 150.973 0.725 18.46-0.254 36.267 6.799 49.527 19.614 13.255 12.815 20.878 30.348 21.202 48.759 0.131 9.25-3.379 18.181-9.785 24.873-17.527 15.621-31.414 34.878-40.687 56.42s-13.705 44.847-12.993 68.28c0 36.919 0 73.838 0 110.813 0 28.219 10.57 37.811 38.531 36.25 40.090-2.287 71.179-22.308 97.456-50.639 16.777 12.269 31.596 26.881 49.374 34.856 19.9 8.006 40.801 13.26 62.123 15.615 3.362 0.612 6.821 0.47 10.126-0.414s6.366-2.488 8.971-4.697c2.606-2.209 4.688-4.968 6.093-8.077 1.411-3.109 2.105-6.49 2.042-9.901 0-54.207 0.336-108.638-3.578-162.678-2.35-32.792-20.969-60.51-46.074-82.037-4.773-3.915-8.533-8.918-10.957-14.587s-3.442-11.837-2.97-17.982c0-62.74 2.128-125.592-1.678-188.112-4.892-79.849-39.89-154.903-97.974-210.079-58.084-55.182-134.94-86.397-215.148-87.393-27.233-0.501-54.519-1.001-81.75 0-15.88 0.558-20.968-5.575-20.242-20.747 0.951-18.068 0.448-36.25 0-54.318-0.447-27.102-10.176-35.857-37.799-34.463-26.648 1.855-52.144 11.566-73.249 27.904-21.105 16.333-36.869 38.548-45.292 63.835-4.865 14.108-11.91 19.018-26.057 21.191-76.271 10.934-145.465 50.54-193.411 110.706-2.847 4.392-5.352 8.994-7.492 13.773v0zM584.158 309.015c-6.372 27.164-11.184 53.094-18.731 78.080-5.927 19.574-21.807 27.438-36.736 20.634-17.11-7.752-20.633-21.919-14.426-38.423 15.095-38.724 15.095-81.687 0-120.405-6.598-17.624 0-32.461 14.929-38.207 14.929-5.74 30.139 1.343 35.73 19.575 7.827 25.822 12.919 52.372 19.234 78.746zM471.042 309.015c-7.493 22.926-13.196 45.010-21.975 65.809-6.598 15.673-21.192 20.635-36.792 12.937-15.6-7.691-18.788-22.306-11.183-37.365 6.841-12.595 10.424-26.692 10.424-41.017s-3.583-28.422-10.424-41.017c-7.437-15.115-4.865-29.503 10.848-37.586 15.712-8.090 30.138-3.123 36.848 12.544 9.002 21.026 14.706 43.054 22.254 65.974v-0.279zM271.927 344.821c15.768 1.058 26.336 9.148 26.784 25.657 0.457 3.51 0.152 7.077-0.894 10.456-1.046 3.385-2.808 6.502-5.167 9.148-2.36 2.643-5.261 4.751-8.508 6.179s-6.765 2.144-10.313 2.099c-3.664 0.25-7.341-0.246-10.807-1.459s-6.647-3.116-9.352-5.594c-2.704-2.477-4.875-5.481-6.379-8.82-1.504-3.345-2.311-6.958-2.371-10.615 0.671-16.174 10.233-24.821 27.007-27.051z" />
<glyph unicode="&#xe912;" glyph-name="dragontiger" d="M503.753 21.333c-62.416 1.206-111.962 4.215-160.195 17.232-25.616 6.929-50.796 15.064-72.351 30.845-17.681 13.016-27.616 29.525-23.554 51.758 1.562 8.374 4.749 15.844 12.121 21.749 30.427 24.161 57.855 51.092 80.035 82.665 15.994 22.773 27.99 47.417 35.363 74.047 0.687 2.532 1.5 5.359 0.938 7.834-3.624 16.265 5.685 27.29 15.994 37.956 12.308 12.709 28.053 20.241 44.735 25.907 30.365 10.303 61.667 16.93 93.843 18.313 23.992 1.030 45.797-6.201 66.288-17.829 3.937-2.23 8.499-3.92 12.999-4.762 13.619-2.532 24.366-8.858 33.297-19.223 38.804-44.942 81.727-85.976 128.523-123.21 9.62-7.652 19.678-14.882 28.985-22.892 2.879-2.469 5.251-6.872 5.501-10.485 3.749-55.131-20.366-95.556-70.161-122.186-24.622-13.198-51.046-21.749-78.416-27.415-24.24-5.063-48.543-10.365-73.159-13.375-30.991-3.794-62.293-5.365-80.911-6.866l0.125-0.063zM508.751 493.389c-1-19.401-1.187-33.801-8.623-46.875-4.123-7.29-9.871-12.11-18.244-14.821-13.433-4.399-26.428-10.242-39.986-14.219-16.432-4.76-33.238-8.255-49.858-12.111-2.999-0.723-6.31-0.422-9.309-1.145-15.807-3.735-30.677 0.181-45.297 5.302-12.933 4.519-24.866 10.905-34.238 20.967-12.809 13.737-17.931 30.366-15.932 48.2 2.499 22.292 4.998 44.464 5.123 66.998 0 9.58 4.123 19.581 8.059 28.739 8.497 19.942 16.994 40.066 27.491 59.044 14.057 25.486 32.239 48.2 58.855 63.022 24.929 13.858 51.17 17.352 77.91 5.302 7.56-3.434 14.058-9.339 20.368-14.821 2.437-2.109 3.874-6.146 4.249-9.459 3.499-30.366 6.748-60.732 9.934-91.098 3.436-32.655 6.685-65.311 9.497-92.966v-0.060zM534.987 516.228c1.312 35.186 3.811 65.070 13.371 93.87 11.558 34.764 33.428 61.876 65.417 81.819 14.37 8.917 29.116 12.893 45.983 10.845 18.557-2.289 32.614-12.050 44.607-24.883 15.309-16.448 26.118-35.607 34.304-56.092 11.622-29.040 12.868-59.165 8.186-89.652-7.748-49.886-37.239-85.796-79.411-113.329-9.188-5.965-18.307-11.869-29.679-13.978-22.994-4.278-43.048 1.928-60.917 15.243-8.56 6.387-16.057 14.219-23.554 21.871-9.747 10.002-11.684 23.317-13.808 36.029-2.437 14.279-3.436 28.799-4.498 38.199v0.060zM938.667 433.146c-2.998-26.389-6.309-52.781-8.937-79.166-2.059-20.969-9.37-39.947-21.675-57.116-14.126-19.706-32.176-35.914-54.482-46.091-23.745-10.849-47.235-7.35-65.417 17.289-15.058 20.423-33.741 37.478-50.671 56.092-12.43 13.676-21.055 29.161-22.932 47.36-2.122 20.362 8.061 35.907 21.806 50.426 28.308 29.884 56.172 60.13 83.41 90.857 9.87 11.086 17.618 23.919 26.18 36.029 1.434 1.988 2.372 4.278 3.248 6.567 4.124 10.845 12.311 17.111 23.74 19.702 2.315 0.543 4.562 0.964 6.872 1.506 15.121 3.615 25.993-1.024 34.492-13.556 7.31-10.845 11.435-22.715 13.119-35.246 3.311-24.462 5.934-49.043 8.624-73.565 0.751-6.928 0.814-13.917 1.183-20.907l1.314-0.181h0.125zM327.435 345.054c-0.125-16.327-5.936-30.845-14.308-44.766-11.871-19.701-23.617-39.583-40.112-55.967-11.371-11.27-24.866-20.548-37.424-30.669-1.812-1.445-3.999-2.532-5.498-4.215-5.998-6.872-12.496-6.81-20.805-3.499-33.676 13.5-63.853 31.755-87.845 58.505-11.496 12.834-19.743 27.597-25.304 43.679-3.374 9.825-5.998 19.826-9.185 29.707-2.749 8.494-2.124 15.9 2.811 24.036 15.245 24.946 29.427 50.491 44.11 75.796 5.498 9.459 10.434 19.461 17.182 28.076 11.809 15.062 29.865 21.268 49.109 10.122 19.493-11.327 39.549-22.112 57.48-35.487 15.308-11.387 28.053-26.028 41.611-39.524 8.872-8.736 17.807-17.655 22.118-29.522 3.061-8.437 4.998-17.232 7.435-25.845-0.5-0.125-0.937-0.245-1.437-0.364l0.063-0.063zM163.176 666.426c4.811-4.398 5.311-9.519 4.998-14.46-0.312-5.302 1.312-9.399 4.936-13.315 6.56-7.050 9.559-15.605 11.621-24.823 2.375-10.664 4.998-21.208 4.311-32.294-0.75-12.712-4.811-24.462-11.434-35.186-8.31-13.436-32.551-14.4-41.548-1.807-2.562 3.615-3.999 8.133-5.185 12.472-4.436 16.026-3.812 32.173 0.375 48.139 5.311 20.063 15.057 38.258 26.803 55.43 1.312 1.988 3.124 3.615 5.061 5.844h0.063zM858.192 751.866c3.311-3.494 6.747-6.868 9.933-10.483 13.5-15.424 24.491-32.113 28.052-52.478 2.065-11.989 1.564-23.196-6.622-33.74-11.992-15.424-27.864-16.749-43.918-8.314-14.746 7.772-18.432 14.882-15.809 31.028 1.314 8.074 3.624 16.087 6.246 23.859 2.441 7.17 8.061 11.749 15.434 14.339 8.624 3.073 10.433 5.965 8.932 14.942-0.933 5.543-2.31 11.026-3.436 16.569-0.25 1.145 0 2.41 0 3.554 0.438 0.241 0.814 0.482 1.252 0.723h-0.063zM413.534 839.101c-0.687-4.759-1.687-9.58-1.936-14.339-0.25-4.458-0.687-9.279 0.812-13.375 1.187-3.253 4.936-5.664 7.685-8.315 2.499-2.35 6.060-4.037 7.747-6.808 8.185-13.616 9.684-28.378 6.81-43.681-0.375-1.929-1.374-4.037-2.811-5.362-8.872-8.074-19.243-13.315-31.552-14.822-15.12-1.868-22.992 6.327-28.178 18.678-6.123 14.701-0.625 28.257 4.623 41.512 6.81 17.292 18.556 31.692 31.801 44.886 1 0.964 2.375 1.626 3.561 2.47 0.5-0.302 1-0.542 1.437-0.844zM626.46 854.409c0 4.7-0.688 9.037 0.245 12.954 0.688 2.772 3.254 5.483 5.689 7.23 0.751 0.542 4.625-1.988 6.121-3.856 22.807-27.655 29.366-59.226 23.933-93.628-1.189-7.531-6.252-11.327-14.126-11.628-6.434-0.241-12.868-0.482-19.302-0.844-6.059-0.361-11.372 1.506-15.309 5.724-3.999 4.338-7.498 9.098-10.871 13.978-3.186 4.7-0.375 9.158 1.752 13.315 1.621 3.193 3.874 6.085 6.059 8.977 15.246 19.822 14.057 23.678 15.747 47.778h0.063z" />
<glyph unicode="&#xe913;" glyph-name="roulette" d="M486.902 553.642c-169.377-3.935-301.176-47.81-301.176-118.883 0-74.549 145-119.173 326.274-119.173 181.276 0 326.275 44.624 326.275 119.173 0 71.073-131.8 114.948-301.177 118.883v66.206c223.239-5.199 401.568-79.548 401.568-185.089 0-109.468-191.846-185.38-426.667-185.38s-426.667 75.913-426.667 185.38c0 105.541 178.33 179.89 401.568 185.089v-66.206zM938.667 249.378c0-109.466-191.846-185.378-426.667-185.378s-426.667 75.913-426.667 185.378v89.719c70.571-81.641 233.219-129.445 426.667-129.445 193.445 0 356.096 47.804 426.667 129.445v-89.719zM486.902 448c0-14.626 11.237-26.483 25.098-26.483s25.098 11.857 25.098 26.483v52.639c69.15-1.804 132.928-11.017 180.84-25.762 46.063-14.176 70.138-31.697 70.138-40.118s-24.075-25.942-70.138-40.117c-53.663-16.512-127.215-26.092-205.938-26.092s-152.277 9.58-205.937 26.092c-46.062 14.176-70.142 31.697-70.142 40.117s24.080 25.942 70.142 40.118c47.913 14.746 111.687 23.958 180.838 25.762v-52.639zM512 620.138c-8.424 0-16.792-0.097-25.098-0.291v57.777c-29.244 10.906-50.196 40.335-50.196 74.927 0 43.878 33.711 79.448 75.294 79.448s75.292-35.57 75.292-79.448c0-34.592-20.95-64.021-50.194-74.927v-57.777c-8.306 0.193-16.675 0.291-25.098 0.291z" />
<glyph unicode="&#xe914;" glyph-name="blackjack" d="M342.059 187.056c73.161 0 135.685 53.424 170.029 90.243 34.379-36.818 96.725-90.243 169.89-90.243 125.958 0 214.022 90.027 214.022 218.854 0 142.042-109.301 233.872-215.012 322.635-49.914 41.945-101.621 85.261-141.249 133.415-6.657 8.050-16.414 12.706-26.665 12.706h-2.043c-10.25 0-20.007-4.656-26.7-12.706-39.662-48.081-91.337-91.434-141.25-133.378-105.744-88.763-215.081-180.557-215.081-322.635 0.035-128.864 88.026-218.891 214.059-218.891zM381.299 21.333c87.145 16.026 174.96 15.343 261.437 0-86.477 133.268-130.719 391.039-130.719 391.039s-43.573-257.771-130.718-391.039z" />
<glyph unicode="&#xe915;" glyph-name="sexy_slots" d="M664.516 248.521c30.259-22.955 55.3-53.214 73.037-87.646-22.955 14.609-51.127 24-80.341 24-76.169 0-137.728-59.473-142.942-133.555-5.218 75.123-66.778 133.555-142.946 133.555-30.258 0-57.387-8.346-80.341-24 17.737 34.432 42.779 64.691 73.037 87.646-62.604-32.346-110.599-90.773-128.337-160.683-5.217-42.778 2.087-71.991 28.172-109.555h499.785c27.127 38.605 32.341 51.127 29.214 109.555-18.782 69.909-65.732 128.337-128.337 160.683zM907.627 386.249c-8.35 16.695-20.868 33.387-35.477 53.214-40.691 55.3-90.773 125.205-90.773 212.85 0 114.772-55.3 178.419-101.21 211.808-53.214 38.606-115.814 53.213-157.551 53.213-1.045 0-1.045 0-2.086 0-41.737 0-105.383-12.521-158.596-49.039-31.302-21.911-56.343-49.039-74.081-81.384-20.868-38.606-31.302-83.471-31.302-135.641 0-84.515-54.256-153.379-97.035-207.634-17.738-20.868-32.345-39.65-41.736-57.387-44.866-80.341-33.388-141.901-22.955-171.115 11.477-30.259 30.258-53.214 52.169-61.559l11.477-5.218v67.819c0 57.387 18.781 142.946 69.907 142.946 54.256 0 87.645-18.782 111.642-31.305 7.304-3.127 13.564-7.3 19.825-9.387 6.26-3.132 12.521-4.177 17.737-4.177 10.434 0 19.825 5.218 28.172 16.695 3.13 5.218 36.519 47.996 39.651 114.773v6.259l-5.218 2.086c-53.213 21.914-89.732 71.996-93.905 129.382 83.469 44.866 157.551 114.773 215.983 201.374 23.996-53.213 62.601-94.948 109.555-116.86v-73.037c0-62.604-39.65-118.945-97.037-140.859l-6.259-2.086v-6.259c2.086-66.778 36.518-109.555 39.65-113.728 8.346-11.477 17.737-16.695 28.169-16.695 11.477 0 21.914 6.259 36.518 13.564 24 13.564 57.387 31.3 111.646 31.3 51.123 0 69.905-85.555 69.905-142.942v-66.778l11.477 4.173c19.823 7.305 49.041 31.3 63.646 71.996 12.523 33.387 17.737 87.642-21.909 159.637zM578.957 561.538c-12.518 4.173-23.996 12.521-33.387 23.998-4.173 5.217-10.436 8.347-16.695 8.347-7.305 0-14.605-4.174-18.782-11.477-4.173 7.304-10.432 11.477-18.778 11.477-7.305 0-12.523-4.174-16.695-9.391-5.218-5.217-10.436-10.434-15.65-14.608-6.263-4.173-12.523-6.26-19.827-8.347 9.391-34.434 37.564-59.475 69.909-59.475s60.514 25.041 69.905 59.475zM492.356 553.19c5.218 3.13 11.477 5.217 17.737 5.217 6.263 0 12.523-2.087 16.695-5.217-1.041-9.391-8.346-15.651-16.695-15.651-8.346 0-14.605 6.26-17.737 15.651z" />
<glyph unicode="&#xe916;" glyph-name="all" d="M128 864c-8.487-0.001-16.626-3.372-22.626-9.374s-9.373-14.14-9.374-22.626v-768c0.001-8.488 3.372-16.623 9.374-22.625s14.14-9.375 22.626-9.375h768c8.488 0 16.623 3.374 22.625 9.375s9.375 14.137 9.375 22.625v768c0 8.487-3.374 16.626-9.375 22.626s-14.137 9.373-22.625 9.374h-768zM160 800h704v-704h-704v704zM256 736c-8.487-0.001-16.626-3.372-22.626-9.374s-9.373-14.14-9.374-22.626v-192c0.001-8.487 3.372-16.626 9.374-22.626s14.14-9.373 22.626-9.374h192c8.487 0.001 16.626 3.372 22.626 9.374s9.373 14.14 9.374 22.626v192c-0.001 8.487-3.372 16.626-9.374 22.626s-14.14 9.373-22.626 9.374h-192zM256 416c-8.487-0.001-16.626-3.372-22.626-9.374s-9.372-14.14-9.374-22.626v-192c0.001-8.488 3.372-16.623 9.374-22.625s14.14-9.375 22.626-9.375h192c8.487 0 16.625 3.374 22.626 9.375s9.373 14.137 9.374 22.625v192c-0.001 8.487-3.372 16.625-9.374 22.626s-14.14 9.373-22.626 9.374h-192zM576 736c-8.487-0.001-16.625-3.372-22.626-9.374s-9.373-14.14-9.374-22.626v-192c0.001-8.487 3.372-16.626 9.374-22.626s14.14-9.373 22.626-9.374h192c8.488 0.001 16.623 3.372 22.625 9.374s9.375 14.14 9.375 22.626v192c0 8.487-3.374 16.626-9.375 22.626s-14.137 9.373-22.625 9.374h-192zM576 416c-8.487-0.001-16.625-3.372-22.626-9.374s-9.373-14.14-9.374-22.626v-192c0.001-8.488 3.372-16.623 9.374-22.625s14.14-9.375 22.626-9.375h192c8.488 0 16.623 3.374 22.625 9.375s9.375 14.137 9.375 22.625v192c0 8.487-3.374 16.625-9.375 22.626s-14.137 9.373-22.625 9.374h-192z" />
<glyph unicode="&#xe917;" glyph-name="joystick" d="M319.502 590.218h-198.613c-19.542 0-35.552-16-35.552-35.552v-213.336c0-19.548 16.010-35.548 35.552-35.548h198.613l142.219 142.218-142.219 142.218zM618.67 874.665h-213.332c-19.552 0-35.552-16.010-35.552-35.552v-198.612l142.22-142.219 142.218 142.219v198.612c0 19.542-16 35.552-35.553 35.552zM903.117 590.218h-198.61l-142.218-142.218 142.218-142.218h198.61c19.543 0 35.553 16 35.553 35.548v213.336c0 19.552-16.010 35.552-35.553 35.552zM512.005 397.716l-142.22-142.218v-198.615c0-19.543 16-35.553 35.552-35.553h213.332c19.553 0 35.553 16.010 35.553 35.553v198.615l-142.218 142.218z" />
<glyph unicode="&#xe918;" glyph-name="close" d="M783.531 719.529c12.497-12.497 12.497-32.758 0-45.255l-226.274-226.274 226.274-226.274c12.497-12.497 12.497-32.759 0-45.257s-32.759-12.497-45.257 0l-226.274 226.274-226.274-226.274c-12.497-12.497-32.758-12.497-45.255 0s-12.497 32.759 0 45.257l226.272 226.274-226.272 226.274c-12.497 12.497-12.497 32.758 0 45.255s32.758 12.497 45.255 0l226.274-226.276 226.274 226.276c12.497 12.497 32.759 12.497 45.257 0z" />
<glyph unicode="&#xe919;" glyph-name="eye" d="M893.794 458.368c-1.122 2.526-28.224 62.656-88.482 122.912-80.286 80.288-181.696 122.72-293.312 122.72s-213.024-42.432-293.312-122.72c-60.256-60.256-87.488-120.48-88.48-122.912-1.455-3.273-2.208-6.818-2.208-10.402 0-3.58 0.752-7.125 2.208-10.398 1.12-2.53 28.224-62.626 88.48-122.88 80.288-80.256 181.696-122.688 293.312-122.688s213.026 42.432 293.312 122.688c60.258 60.254 87.36 120.35 88.482 122.88 1.455 3.273 2.206 6.818 2.206 10.398 0 3.584-0.751 7.13-2.206 10.402zM512 320c-25.314 0-50.065 7.505-71.113 21.572-21.050 14.063-37.456 34.057-47.144 57.442-9.688 23.39-12.223 49.126-7.284 73.958 4.939 24.828 17.13 47.637 35.031 65.537 17.9 17.901 40.709 30.092 65.537 35.031 24.832 4.939 50.569 2.404 73.958-7.284 23.386-9.688 43.379-26.094 57.442-47.144 14.067-21.047 21.572-45.798 21.572-71.113 0-33.946-13.487-66.505-37.491-90.509s-56.563-37.491-90.509-37.491z" />
<glyph unicode="&#xe91a;" glyph-name="eye-slash" d="M411.776 666.021c-1.512 1.609-2.562 3.575-3.046 5.703s-0.383 4.34 0.291 6.418c0.674 2.078 1.898 3.947 3.55 5.421s3.672 2.5 5.861 2.976c30.694 6.814 62.084 10.225 93.568 10.166 111.616 0 213.026-41.223 293.312-119.223 60.258-58.54 87.36-116.955 88.482-119.409 1.455-3.183 2.206-6.622 2.206-10.103s-0.751-6.925-2.206-10.103c-1.122-2.458-28.224-60.843-88.482-119.381-9.131-8.828-18.505-17.19-28.126-25.088-2.534-2.086-5.803-3.136-9.114-2.927-3.315 0.209-6.417 1.66-8.649 4.049l-347.648 371.502zM786.944 191.151c2.308-2.411 4.1-5.239 5.278-8.329 1.173-3.085 1.702-6.37 1.562-9.655-0.141-3.29-0.951-6.519-2.389-9.498-1.434-2.982-3.465-5.658-5.969-7.872-2.509-2.214-5.444-3.921-8.636-5.026-3.191-1.101-6.575-1.579-9.958-1.404-3.383 0.179-6.694 1.007-9.745 2.436s-5.781 3.435-8.030 5.897l-70.656 75.388c-52.399-22.515-109.103-34.031-166.4-33.792-111.616 0-213.024 41.22-293.312 119.189-60.256 58.539-87.488 116.924-88.48 119.381-1.455 3.179-2.208 6.622-2.208 10.103s0.752 6.921 2.208 10.103c0.992 2.364 28.224 60.868 88.48 119.409 24.073 23.495 50.927 44.136 80 61.492l-61.632 65.876c-2.308 2.409-4.101 5.239-5.275 8.326s-1.706 6.37-1.565 9.658c0.141 3.288 0.953 6.516 2.388 9.498s3.465 5.656 5.972 7.87c2.507 2.213 5.441 3.921 8.633 5.025s6.577 1.581 9.96 1.404c3.383-0.177 6.696-1.004 9.747-2.434s5.78-3.434 8.028-5.896l512-547.15zM577.378 341.15l-168.61 180.309c-17.374-23.125-26.001-51.366-24.426-79.957s13.258-55.774 33.074-76.966c19.814-21.193 46.554-35.093 75.695-39.351 29.141-4.262 58.906 1.378 84.267 15.966z" />
<glyph unicode="&#xe91b;" glyph-name="menu" d="M887.467 106.667h-750.933c-30.72 0-51.2 17.067-51.2 42.667s20.48 42.667 51.2 42.667h750.933c30.72 0 51.2-17.067 51.2-42.667s-20.48-42.667-51.2-42.667zM885.333 405.333h-746.667c-32 0-53.333 17.067-53.333 42.667s21.333 42.667 53.333 42.667h746.667c32 0 53.333-17.067 53.333-42.667s-21.333-42.667-53.333-42.667zM883.2 661.333h-733.871c-33.28 0-55.467 17.067-55.467 42.667s22.187 42.667 55.467 42.667h733.871c33.28 0 55.467-17.067 55.467-42.667s-22.187-42.667-55.467-42.667z" />
<glyph unicode="&#xe91c;" glyph-name="contact" d="M938.266 416.956c1.361-31.492-10.236-62.225-32.243-85.453-22.003-23.223-52.625-37.047-85.146-38.438-1.899-0.085-3.797-0.128-5.692-0.128-8.64 0.004-17.254 0.909-25.694 2.701-25.045-37.444-57.882-69.419-96.414-93.867-38.532-24.452-81.911-40.849-127.36-48.137-5.376-15.292-16.102-28.288-30.319-36.736-14.221-8.448-31.040-11.819-47.556-9.532-16.512 2.287-31.684 10.091-42.889 22.059-11.2 11.972-17.732 27.358-18.467 43.499-0.733 16.137 4.382 32.017 14.456 44.894 10.078 12.877 24.482 21.939 40.725 25.621s33.301 1.754 48.235-5.453c14.929-7.211 26.79-19.243 33.527-34.018 63.987 11.46 121.792 44.301 163.341 92.796 41.549 48.499 64.205 109.577 64.026 172.595 0 148.874-125.069 269.991-278.797 269.991s-278.796-121.117-278.796-269.991c-0.009-46.037 12.14-91.307 35.291-131.511 0.785-1.327 1.373-2.756 1.749-4.241 2.236-6.020 1.997-12.638-0.667-18.492s-7.552-10.492-13.648-12.954c-14.929-6.084-30.964-9.216-47.161-9.212-1.906 0-3.817 0.043-5.731 0.128-32.505 1.404-63.107 15.236-85.096 38.464-21.989 23.223-33.571 53.943-32.206 85.427 0.549 12.553 0.243 23.753-0.057 34.586-0.279 10.197-0.569 20.745-0.091 31.748 1.427 30.741 15.081 59.751 38.102 80.959s53.622 32.967 85.394 32.815c51.021 113.049 167.586 192.257 302.915 192.257s251.895-79.208 302.916-192.259c31.778 0.175 62.387-11.573 85.414-32.782 23.023-21.208 36.672-50.228 38.080-80.969 0.478-11.025 0.192-21.568-0.094-31.765-0.294-10.833-0.602-22.042-0.051-34.603zM728.439 469.359c-0.013-32.111-7.642-63.791-22.298-92.595-14.656-28.809-35.947-53.969-62.229-73.545-26.287-19.575-56.862-33.041-89.37-39.364-32.512-6.323-66.086-5.329-98.138 2.906l-87.606-48.994c-4.42-2.475-9.498-3.622-14.592-3.298s-9.974 2.103-14.023 5.111c-4.050 3.008-7.087 7.113-8.728 11.793s-1.811 9.728-0.489 14.502l22.39 80.887c-37.079 38.814-57.71 89.719-57.788 142.596 0 115.607 97.086 209.652 216.431 209.652 119.343 0 216.439-94.045 216.439-209.652zM451.827 469.359c0 6.626-2.718 12.983-7.556 17.673-4.843 4.685-11.405 7.317-18.25 7.317h-0.043c-5.102-0.009-10.087-1.481-14.324-4.233s-7.537-6.66-9.484-11.226c-1.946-4.57-2.45-9.591-1.449-14.438 1.001-4.843 3.463-9.293 7.074-12.783s8.209-5.867 13.214-6.827c5.005-0.96 10.193-0.461 14.903 1.429 4.715 1.894 8.742 5.099 11.575 9.207s4.343 8.939 4.343 13.879h-0.004zM537.813 469.359c-0.004 0.819-0.051 1.634-0.141 2.449-0.081 0.815-0.205 1.63-0.375 2.432-0.154 0.802-0.363 1.591-0.623 2.364-0.239 0.785-0.529 1.553-0.841 2.317-0.307 0.768-0.687 1.485-1.084 2.202-0.393 0.721-0.823 1.421-1.289 2.099-0.469 0.683-0.977 1.344-1.515 1.98-0.533 0.64-1.101 1.246-1.702 1.818-0.585 0.585-1.22 1.135-1.877 1.668-0.653 0.499-1.344 0.998-2.048 1.446-0.7 0.452-1.421 0.87-2.167 1.25-0.738 0.384-1.51 0.734-2.287 1.050s-1.57 0.589-2.372 0.815c-1.609 0.503-3.273 0.828-4.958 0.969-2.526 0.235-5.077 0.119-7.569-0.35-0.828-0.166-1.651-0.371-2.458-0.619-0.806-0.226-1.6-0.499-2.377-0.815-0.772-0.316-1.545-0.666-2.287-1.050-0.738-0.384-1.463-0.798-2.167-1.25-0.708-0.448-1.395-0.947-2.031-1.446-0.67-0.533-1.289-1.084-1.89-1.668-0.606-0.572-1.173-1.178-1.707-1.818-0.533-0.636-1.033-1.297-1.493-1.98-0.474-0.678-0.909-1.378-1.31-2.099-0.397-0.717-0.751-1.451-1.067-2.202-0.329-0.755-0.614-1.527-0.862-2.317-0.239-0.764-0.444-1.566-0.614-2.364-0.171-0.802-0.299-1.617-0.384-2.432-0.081-0.819-0.119-1.634-0.119-2.449 0-0.819 0.038-1.651 0.119-2.466 0.085-0.811 0.213-1.617 0.384-2.415 0.171-0.802 0.375-1.6 0.614-2.385 0.247-0.781 0.533-1.545 0.862-2.3 0.316-0.755 0.67-1.493 1.067-2.214 0.397-0.717 0.845-1.417 1.31-2.099 0.461-0.678 0.96-1.335 1.493-1.967 0.538-0.636 1.105-1.25 1.707-1.83 0.602-0.567 1.22-1.135 1.89-1.651 0.649-0.521 1.327-1.003 2.031-1.451s1.425-0.883 2.167-1.263c1.493-0.755 3.055-1.382 4.663-1.869 0.806-0.23 1.634-0.431 2.458-0.597 1.66-0.329 3.349-0.491 5.043-0.486 6.835 0.021 13.389 2.65 18.236 7.317 1.19 1.169 2.266 2.441 3.217 3.797 0.465 0.683 0.896 1.382 1.289 2.099 0.397 0.717 0.759 1.468 1.084 2.214 0.329 0.751 0.602 1.536 0.841 2.3 0.26 0.781 0.465 1.579 0.623 2.385 0.171 0.798 0.294 1.604 0.375 2.415 0.090 0.819 0.132 1.643 0.132 2.47l0.009-0.004zM623.834 469.359c0 6.626-2.718 12.983-7.561 17.673-4.838 4.685-11.401 7.317-18.244 7.317h-0.051c-5.103-0.009-10.086-1.481-14.323-4.233s-7.539-6.66-9.485-11.23c-1.946-4.565-2.449-9.587-1.446-14.434 1.003-4.843 3.46-9.293 7.074-12.783 3.61-3.49 8.209-5.867 13.214-6.827s10.189-0.461 14.903 1.429c4.71 1.894 8.738 5.099 11.571 9.207 2.837 4.109 4.348 8.939 4.348 13.879z" />
<glyph unicode="&#xe91d;" glyph-name="news" d="M648.533 789.333h-409.6c-18.098-0.023-35.448-7.223-48.246-20.021s-19.997-30.147-20.021-48.246v-512c0.029-27.149 10.828-53.18 30.025-72.375s45.226-29.995 72.375-30.025h409.6c4.484-0.004 8.922 0.879 13.065 2.594s7.906 4.228 11.076 7.398c3.17 3.17 5.683 6.933 7.398 11.076s2.598 8.58 2.594 13.065v580.267c-0.026 18.098-7.223 35.448-20.019 48.246-12.8 12.797-30.148 19.997-48.247 20.021zM324.267 652.8h102.4c9.054 0 17.737-3.596 24.137-9.997s9.997-15.084 9.997-24.136c0-9.053-3.597-17.735-9.997-24.136s-15.083-9.998-24.137-9.998h-102.4c-9.053 0-17.735 3.596-24.136 9.998s-9.997 15.083-9.997 24.136c0 9.053 3.596 17.735 9.997 24.136s15.084 9.997 24.136 9.997zM563.2 226.133h-238.933c-9.053 0-17.735 3.597-24.136 9.997s-9.997 15.083-9.997 24.137c0 9.054 3.596 17.737 9.997 24.137s15.084 9.997 24.136 9.997h238.933c9.054 0 17.737-3.597 24.137-9.997s9.997-15.083 9.997-24.137c0-9.054-3.597-17.737-9.997-24.137s-15.083-9.997-24.137-9.997zM563.2 345.6h-238.933c-9.053 0-17.735 3.597-24.136 9.997s-9.997 15.083-9.997 24.137c0 9.054 3.596 17.737 9.997 24.137s15.084 9.997 24.136 9.997h238.933c9.054 0 17.737-3.597 24.137-9.997s9.997-15.083 9.997-24.137c0-9.054-3.597-17.737-9.997-24.137s-15.083-9.997-24.137-9.997zM563.2 465.067h-238.933c-9.053 0-17.735 3.597-24.136 9.997s-9.997 15.083-9.997 24.137c0 9.054 3.596 17.737 9.997 24.137s15.084 9.997 24.136 9.997h238.933c9.054 0 17.737-3.597 24.137-9.997s9.997-15.083 9.997-24.137c0-9.054-3.597-17.737-9.997-24.137s-15.083-9.997-24.137-9.997zM750.933 106.667h-68.267c-4.484-0.004-8.922 0.879-13.065 2.594s-7.906 4.228-11.076 7.398c-3.17 3.17-5.683 6.933-7.398 11.076s-2.598 8.58-2.594 13.065v409.6c-0.004 4.483 0.879 8.923 2.594 13.065s4.228 7.906 7.398 11.076c3.17 3.17 6.933 5.684 11.076 7.399s8.58 2.595 13.065 2.593h136.533c4.484 0.003 8.922-0.879 13.065-2.593s7.906-4.229 11.076-7.399c3.17-3.17 5.683-6.934 7.398-11.076s2.598-8.582 2.594-13.065v-341.333c-0.030-27.149-10.829-53.18-30.025-72.375s-45.227-29.995-72.375-30.025zM716.8 174.933h34.133c9.050 0.004 17.728 3.605 24.128 10.005s10.001 15.078 10.005 24.128v307.2h-68.267v-341.333z" />
<glyph unicode="&#xe91e;" glyph-name="promotion" d="M883.58 392.145l-29.21 43.115c-5.248 7.735-5.248 17.741 0 25.489l29.222 43.136c26.607 39.338 8.602 92.034-36.796 108.699l-50.001 18.4c-8.99 3.306-15.121 11.406-15.616 20.628l-2.752 51.363c-2.492 46.702-49.156 79.327-96.299 67.21l-51.703-13.357c-9.259-2.391-19.217 0.685-25.246 7.873l-33.673 40.005c-30.647 36.427-88.482 36.367-119.031-0.026l-33.674-39.982c-6.031-7.189-15.971-10.281-25.23-7.873l-51.701 13.348c-47.015 12.163-93.818-20.439-96.316-67.201l-2.752-51.372c-0.492-9.221-6.609-17.315-15.596-20.619l-50.001-18.385c-45.455-16.719-63.401-69.439-36.783-108.75l29.187-43.081c5.251-7.753 5.251-17.771 0.017-25.506l-29.204-43.119c-26.604-39.219-8.7-92.036 36.783-108.732l50.001-18.389c8.987-3.311 15.104-11.405 15.596-20.629l2.752-51.371c2.493-46.694 49.196-79.339 96.316-67.2l51.701 13.363c9.243 2.385 19.165-0.687 25.247-7.898l33.657-39.983c30.588-36.352 88.329-36.446 119.049-0.017l33.66 40c6.063 7.211 15.97 10.266 25.229 7.898l51.75-13.38c46.929-12.083 93.769 20.39 96.265 67.217l2.752 51.358c0.491 9.233 6.626 17.331 15.616 20.642l50.001 18.377c45.44 16.713 63.403 69.436 36.783 108.749zM406.449 583.076c28.781 0 52.192-22.488 52.192-50.131s-23.411-50.129-52.192-50.129c-28.782 0-52.192 22.485-52.192 50.129s23.412 50.131 52.192 50.131zM597.824 298.995c-28.783 0-52.194 22.49-52.194 50.133s23.415 50.129 52.194 50.129c28.783 0 52.194-22.485 52.194-50.129s-23.411-50.133-52.194-50.133zM642.372 540.288l-243.567-233.945c-10.195-9.792-26.708-9.792-36.902 0-10.193 9.788-10.193 25.651 0 35.443l243.567 233.946c10.193 9.791 26.709 9.791 36.902 0s10.193-25.652 0-35.444z" />
<glyph unicode="&#xe91f;" glyph-name="sport" d="M844.165 238.621c30.757 51.466 49.738 109.097 55.542 169.529l-89.424-64.573 33.882-104.956zM423.944 540.664l-41.738-128.299 109.277-79.29 109.277 79.29-41.738 128.299h-135.078zM603.173 560.431l44.982-138.273 129.733-42.689 123.232 88.99c-3.555 72.618-26.018 141.76-64.987 201.771l-152.338 0.26-80.622-110.059zM83.163 409.301c5.637-60.461 24.449-118.133 55.047-169.669l34.178 104.849-89.225 64.819zM467.431 291.144l-117.758 85.443-129.928-42.025-47.043-144.314c8.98-11.039 18.566-21.684 28.773-31.879 41.32-41.267 89.908-72.634 142.876-92.93l123.081 89.305v136.401zM334.853 422.294l44.967 138.218-80.054 110.525-152.296 0.173c-39.151-59.92-61.796-129.005-65.55-201.594l122.994-89.35 129.939 42.029zM402.267 48.075c28.964-6.386 58.837-9.675 89.217-9.675s60.252 3.289 89.215 9.675l-89.215 64.737-89.217-64.737zM633.176 376.504l-117.641-85.361v-136.401l123.081-89.305c52.969 20.296 101.556 51.663 142.877 92.93 9.929 9.912 19.276 20.255 28.041 30.966l-46.645 144.49-129.712 42.68zM799.588 718.338c-5.808 6.585-11.825 13.031-18.096 19.293-37.011 36.963-79.86 65.969-126.46 86.206l34.087-105.312 110.469-0.188zM418.771 588.707h145.51l80.658 110.11-46.883 144.868c-34.333 9.162-70.087 13.915-106.574 13.915-36.090 0-71.455-4.652-105.443-13.619l-47.31-144.766 80.041-110.509zM329.003 824.296c-47.011-20.258-90.235-49.419-127.529-86.664-5.992-5.985-11.751-12.139-17.323-18.42l110.469-0.127 34.383 105.211z" />
<glyph unicode="&#xe920;" glyph-name="check" d="M598.443 617.164l-358.398-352c-5.985-5.888-14.045-9.186-22.44-9.186s-16.455 3.298-22.44 9.186l-153.6 150.839c-2.997 2.948-5.384 6.455-7.025 10.325s-2.504 8.021-2.539 12.224c-0.035 4.203 0.758 8.375 2.333 12.271s3.903 7.441 6.85 10.441c2.947 2.995 6.455 5.385 10.325 7.023 3.869 1.643 8.024 2.505 12.227 2.539 4.203 0.038 8.372-0.755 12.268-2.334 3.896-1.574 7.444-3.9 10.441-6.848l131.16-128.802 336 330.001c6.059 5.952 14.234 9.253 22.724 9.178 4.203-0.037 8.358-0.902 12.228-2.545 3.874-1.644 7.381-4.033 10.33-7.032 2.944-2.999 5.274-6.55 6.848-10.449s2.364-8.070 2.33-12.274c-0.038-4.204-0.905-8.361-2.547-12.231s-4.032-7.379-7.031-10.326h-0.043zM982.844 662.444c-2.944 3.002-6.451 5.393-10.325 7.038-3.87 1.645-8.026 2.511-12.233 2.548-4.203 0.037-8.375-0.755-12.275-2.331s-7.45-3.906-10.445-6.855l-336-330.001-75.319 74.001c-6.059 5.948-14.229 9.242-22.72 9.165-8.486-0.081-16.597-3.529-22.541-9.583-5.948-6.059-9.242-14.229-9.165-22.72 0.081-8.486 3.529-16.593 9.583-22.541l97.719-96c5.986-5.888 14.046-9.186 22.443-9.186 8.393 0 16.452 3.298 22.438 9.186l358.4 352c3.004 2.943 5.397 6.449 7.049 10.318 1.647 3.869 2.517 8.025 2.556 12.231 0.043 4.205-0.747 8.377-2.317 12.278-1.574 3.901-3.9 7.453-6.848 10.453z" />
<glyph unicode="&#xe921;" glyph-name="copy" d="M768 672v-576c0-8.486-3.371-16.627-9.374-22.626-5.999-6.003-14.14-9.374-22.626-9.374h-576c-8.487 0-16.626 3.371-22.627 9.374-6.001 5.999-9.373 14.14-9.373 22.626v576c0 8.487 3.372 16.626 9.373 22.627s14.141 9.373 22.627 9.373h576c8.486 0 16.627-3.372 22.626-9.373 6.003-6.001 9.374-14.141 9.374-22.627zM864 832h-576c-8.487 0-16.626-3.372-22.627-9.373s-9.373-14.141-9.373-22.627c0-8.487 3.372-16.626 9.373-22.627s14.141-9.373 22.627-9.373h544v-544c0-8.486 3.371-16.627 9.374-22.626 5.999-6.003 14.14-9.374 22.626-9.374s16.627 3.371 22.626 9.374c6.003 5.999 9.374 14.14 9.374 22.626v576c0 8.487-3.371 16.626-9.374 22.627-5.999 6.001-14.14 9.373-22.626 9.373z" />
<glyph unicode="&#xe922;" glyph-name="bank" d="M992 128c0-8.486-3.371-16.627-9.374-22.626-5.999-6.003-14.14-9.374-22.626-9.374h-896c-8.487 0-16.626 3.371-22.627 9.374-6.001 5.999-9.373 14.14-9.373 22.626s3.371 16.627 9.373 22.626c6.001 6.003 14.141 9.374 22.627 9.374h896c8.486 0 16.627-3.371 22.626-9.374 6.003-5.999 9.374-14.14 9.374-22.626zM65.2 567.281c-1.903 6.711-1.562 13.86 0.973 20.358s7.123 11.991 13.067 15.642l416 256c5.039 3.099 10.842 4.74 16.759 4.74s11.721-1.641 16.759-4.74l416-256c5.948-3.646 10.539-9.135 13.077-15.631s2.889-13.644 0.99-20.355c-1.899-6.711-5.935-12.62-11.503-16.824-5.564-4.205-12.348-6.477-19.324-6.47h-96v-256.001h64c8.486 0 16.627-3.371 22.626-9.374 6.003-5.999 9.374-14.14 9.374-22.626s-3.371-16.627-9.374-22.626c-5.999-6.003-14.14-9.374-22.626-9.374h-768c-8.487 0-16.626 3.371-22.627 9.374-6.001 5.999-9.373 14.14-9.373 22.626s3.372 16.627 9.373 22.626c6.001 6.003 14.141 9.374 22.627 9.374h64v256.001h-96c-6.968-0.003-13.747 2.27-19.306 6.472s-9.595 10.103-11.494 16.808zM576 320c0-8.486 3.371-16.627 9.374-22.626 5.999-6.003 14.14-9.374 22.626-9.374s16.627 3.371 22.626 9.374c6.003 5.999 9.374 14.14 9.374 22.626v192c0 8.486-3.371 16.627-9.374 22.628-5.999 6.001-14.14 9.373-22.626 9.373s-16.627-3.372-22.626-9.373c-6.003-6.001-9.374-14.142-9.374-22.628v-192zM384 320c0-8.486 3.372-16.627 9.373-22.626 6.001-6.003 14.141-9.374 22.627-9.374s16.627 3.371 22.626 9.374c6.003 5.999 9.374 14.14 9.374 22.626v192c0 8.486-3.371 16.627-9.374 22.628-5.999 6.001-14.139 9.373-22.626 9.373s-16.626-3.372-22.627-9.373c-6.001-6.001-9.373-14.142-9.373-22.628v-192z" />
<glyph unicode="&#xe923;" glyph-name="wallet" d="M864 704h-640c-8.487 0-16.626 3.372-22.627 9.373s-9.373 14.141-9.373 22.627c0 8.487 3.372 16.626 9.373 22.627s14.141 9.373 22.627 9.373h544c8.486 0 16.627 3.372 22.626 9.373 6.003 6.001 9.374 14.141 9.374 22.627s-3.371 16.626-9.374 22.627c-5.999 6.001-14.14 9.373-22.626 9.373h-544c-25.461 0-49.879-10.114-67.882-28.118s-28.118-42.421-28.118-67.882v-512c0-25.459 10.114-49.877 28.118-67.883 18.004-18.001 42.421-28.117 67.882-28.117h640c16.973 0 33.254 6.741 45.257 18.743s18.743 28.284 18.743 45.257v448c0 16.974-6.741 33.253-18.743 45.255s-28.284 18.745-45.257 18.745zM720 384c-9.493 0-18.773 2.816-26.667 8.090s-14.046 12.77-17.681 21.542c-3.631 8.768-4.582 18.419-2.731 27.733 1.852 9.31 6.426 17.865 13.137 24.576s15.266 11.285 24.576 13.137c9.314 1.852 18.965 0.9 27.733-2.731 8.772-3.635 16.269-9.788 21.542-17.681s8.090-17.173 8.090-26.667c0-12.732-5.056-24.939-14.059-33.941s-21.21-14.059-33.941-14.059z" />
<glyph unicode="&#xe924;" glyph-name="money" d="M672 448c0-31.646-9.382-62.579-26.965-88.892-17.579-26.313-42.569-46.818-71.804-58.927-29.239-12.113-61.41-15.279-92.446-9.105-31.036 6.17-59.546 21.41-81.922 43.785-22.377 22.379-37.615 50.889-43.789 81.924s-3.005 63.206 9.105 92.446c12.11 29.235 32.618 54.223 58.929 71.804s57.245 26.965 88.891 26.965c42.436 0 83.132-16.857 113.139-46.863 30.003-30.005 46.861-70.701 46.861-113.137zM992 704v-512c0-8.486-3.371-16.627-9.374-22.626-5.999-6.003-14.14-9.374-22.626-9.374h-896c-8.487 0-16.626 3.371-22.627 9.374-6.001 5.999-9.373 14.14-9.373 22.626v512c0 8.487 3.371 16.626 9.373 22.627s14.141 9.373 22.627 9.373h896c8.486 0 16.627-3.372 22.626-9.373 6.003-6.001 9.374-14.141 9.374-22.627zM928 518.601c-36.335 10.743-69.406 30.407-96.201 57.2-26.79 26.793-46.455 59.863-57.199 96.199h-525.201c-10.744-36.336-30.408-69.406-57.201-96.199s-59.863-46.457-96.199-57.2v-141.201c36.336-10.743 69.406-30.409 96.199-57.199 26.793-26.795 46.457-59.866 57.201-96.201h525.201c10.743 36.335 30.409 69.406 57.199 96.201 26.795 26.79 59.866 46.455 96.201 57.199v141.201z" />
<glyph unicode="&#xe925;" glyph-name="withdraw" d="M633.417 400.465c-18.18 0-32.917-14.737-32.917-32.913 0-54.537-44.207-98.743-98.743-98.743-54.532 0-98.741 44.207-98.741 98.743 0 18.176-14.736 32.913-32.915 32.913s-32.915-14.737-32.915-32.913c0-90.893 73.681-164.574 164.571-164.574s164.57 73.681 164.57 164.574c0.004 18.176-14.733 32.913-32.909 32.913zM656.687 818.707l-131.661 131.656c-12.851 12.85-33.685 12.85-46.537 0l-131.66-131.658c-12.628-13.076-12.265-33.912 0.81-46.54 12.756-12.32 32.977-12.32 45.732 0l75.471 75.473v-447.172c0-18.18 14.737-32.917 32.917-32.917s32.913 14.737 32.913 32.917v447.172l75.473-75.473c6.17-6.173 14.541-9.643 23.27-9.645 18.176 0.004 32.909 14.744 32.905 32.921 0 8.727-3.465 17.095-9.634 23.266zM929.643 696.692h-296.226c-18.18 0-32.917-14.736-32.917-32.915s14.737-32.915 32.917-32.915h101.705c14.131-82.697 78.912-147.475 161.609-161.611v-203.409c-82.697-14.131-147.477-78.912-161.609-161.609h-466.725c-14.132 82.697-78.911 147.477-161.608 161.609v203.413c82.697 14.135 147.476 78.911 161.608 161.608h101.705c18.179 0 32.915 14.736 32.915 32.915s-14.736 32.915-32.915 32.915h-296.229c-18.179-0.002-32.915-14.738-32.915-32.915v-592.458c0-18.176 14.736-32.913 32.915-32.913h855.77c18.18 0 32.917 14.737 32.917 32.913v592.458c0 18.177-14.737 32.913-32.917 32.913zM106.786 630.865h94.070c-12.044-46.058-48.012-82.026-94.070-94.070v94.070zM106.786 104.235v94.071c46.058-12.045 82.026-48.013 94.070-94.071h-94.070zM896.73 104.235h-94.071c12.045 46.059 48.013 82.027 94.071 94.071v-94.071zM896.73 536.797c-46.059 12.044-82.027 48.012-94.071 94.070h94.071v-94.070z" />
<glyph unicode="&#xe926;" glyph-name="user" d="M688 480c0-34.807-10.321-68.838-29.662-97.779-19.337-28.945-46.827-51.503-78.985-64.823-32.162-13.321-67.55-16.806-101.687-10.014-34.142 6.788-65.503 23.552-90.117 48.166s-41.376 55.974-48.167 90.116c-6.791 34.138-3.305 69.525 10.016 101.686 13.321 32.16 35.879 59.647 64.822 78.986s62.973 29.661 97.78 29.661c46.677 0 91.443-18.543 124.45-51.549s51.55-77.774 51.55-124.451zM896 768v-640c0-16.973-6.741-33.254-18.743-45.257s-28.284-18.743-45.257-18.743h-640c-16.974 0-33.253 6.741-45.255 18.743s-18.745 28.284-18.745 45.257v640c0 16.974 6.743 33.253 18.745 45.255s28.281 18.745 45.255 18.745h640c16.973 0 33.254-6.743 45.257-18.745s18.743-28.281 18.743-45.255zM832 128v640h-640v-640h14.68c19.048 60.1 55.305 113.297 104.28 152.998 8.213 6.613 16.693 12.774 25.44 18.483 2.915 1.899 6.369 2.803 9.841 2.564s6.772-1.604 9.399-3.887c43.456-37.513 98.952-58.155 156.36-58.155s112.905 20.642 156.361 58.155c2.628 2.283 5.926 3.648 9.399 3.887 3.469 0.239 6.925-0.666 9.839-2.564 8.747-5.734 17.229-11.895 25.442-18.483 48.973-39.701 85.231-92.898 104.277-152.998h14.682z" />
<glyph unicode="&#xe927;" glyph-name="ticket" d="M928 544c8.486 0 16.627 3.372 22.626 9.373 6.003 6.001 9.374 14.141 9.374 22.627v128c0 16.974-6.741 33.253-18.743 45.255s-28.284 18.745-45.257 18.745h-768c-16.974 0-33.253-6.743-45.255-18.745s-18.745-28.281-18.745-45.255v-128c0-8.487 3.372-16.626 9.373-22.627s14.141-9.373 22.627-9.373c25.461 0 49.879-10.114 67.882-28.117 18.004-18.005 28.118-42.423 28.118-67.883s-10.114-49.877-28.118-67.883c-18.004-18.001-42.421-28.117-67.882-28.117-8.487 0-16.626-3.371-22.627-9.374-6.001-5.999-9.373-14.14-9.373-22.626v-128c0-16.973 6.743-33.254 18.745-45.257s28.281-18.743 45.255-18.743h768c16.973 0 33.254 6.741 45.257 18.743s18.743 28.284 18.743 45.257v128c0 8.486-3.371 16.627-9.374 22.626-5.999 6.003-14.14 9.374-22.626 9.374-25.459 0-49.877 10.116-67.883 28.117-18.001 18.005-28.117 42.423-28.117 67.883s10.116 49.877 28.117 67.883c18.005 18.003 42.423 28.117 67.883 28.117zM128 291.2c36.169 7.343 68.687 26.965 92.044 55.543s36.116 64.35 36.116 101.257c0 36.907-12.759 72.678-36.116 101.256-23.357 28.576-55.875 48.199-92.044 55.544v99.2h224v-512h-224v99.2z" />
<glyph unicode="&#xe928;" glyph-name="logout" d="M760.043 507.362h-396.234c-18.888 0-34.201-15.782-34.201-35.247s15.313-35.247 34.201-35.247h396.234l-44.22-45.572c-13.355-13.764-13.355-36.083 0-49.847s35.012-13.764 48.367 0l102.596 105.741c0.802 0.823 1.557 1.69 2.274 2.59 0.311 0.393 0.585 0.811 0.879 1.212 0.375 0.516 0.764 1.020 1.114 1.557 0.32 0.495 0.593 1.003 0.887 1.506 0.277 0.482 0.572 0.956 0.832 1.455 0.269 0.516 0.495 1.045 0.734 1.574 0.239 0.512 0.486 1.020 0.7 1.549 0.205 0.512 0.371 1.037 0.555 1.557 0.196 0.567 0.405 1.122 0.576 1.698 0.154 0.521 0.265 1.050 0.393 1.579 0.141 0.585 0.303 1.169 0.418 1.766 0.115 0.606 0.183 1.225 0.269 1.835 0.073 0.525 0.171 1.041 0.222 1.574 0.111 1.135 0.166 2.283 0.166 3.422l0.004 0.051-0.004 0.051c0 1.148-0.055 2.287-0.166 3.426-0.051 0.525-0.145 1.037-0.218 1.553-0.085 0.623-0.158 1.242-0.273 1.86-0.115 0.589-0.273 1.165-0.418 1.745-0.128 0.533-0.243 1.071-0.397 1.6-0.166 0.567-0.375 1.114-0.567 1.668-0.183 0.529-0.354 1.062-0.563 1.587-0.205 0.516-0.452 1.011-0.683 1.515-0.247 0.538-0.478 1.084-0.751 1.613-0.252 0.478-0.538 0.939-0.811 1.404-0.299 0.521-0.58 1.045-0.909 1.549-0.333 0.516-0.704 0.998-1.062 1.493-0.311 0.427-0.597 0.866-0.93 1.28-0.683 0.853-1.404 1.673-2.159 2.462l-0.102 0.115-102.601 105.745c-6.682 6.883-15.433 10.325-24.183 10.325-8.751-0.002-17.506-3.442-24.183-10.323-13.355-13.765-13.355-36.081-0.004-49.846l44.22-45.576zM181.398 154.889h433.207c18.889 0 34.202 15.782 34.202 35.247v140.988c0 19.465-15.313 35.247-34.202 35.247s-34.202-15.782-34.202-35.247v-105.741h-364.804v493.457h364.804v-105.743c0-19.466 15.313-35.247 34.202-35.247s34.202 15.781 34.202 35.247v140.989c0 19.466-15.313 35.247-34.202 35.247h-433.207c-18.888 0-34.2-15.781-34.2-35.247v-563.951c0-19.465 15.313-35.247 34.2-35.247z" />
<glyph unicode="&#xe929;" glyph-name="poker" d="M638.246 487.424l-109.747 109.401c-9.143 9.135-23.957 9.135-33.101 0l-109.628-109.299c-29.616-29.76-29.496-77.897 0.267-107.511 25.13-25.007 64.207-29.325 94.189-10.406l-10.334-55.748c-1.835-9.865 4.672-19.354 14.537-21.188 1.101-0.205 2.219-0.307 3.337-0.307h48.465c10.035-0.009 18.176 8.124 18.18 18.159 0 1.118-0.102 2.236-0.307 3.337l-10.453 56.060c30.067-19.051 69.321-14.746 94.545 10.364 29.598 29.453 29.717 77.325 0.265 106.923-0.068 0.073-0.141 0.145-0.213 0.218zM207.33 458.453c2.477 73.596 31.605 143.788 81.964 197.514l-0.157 0.14-86.232 86.232c-73.201-76.669-115.131-177.912-117.571-283.886h121.997zM304.050 670.706c53.723 50.355 123.905 79.483 197.496 81.964-0.009 0.064-0.009 0.128 0 0.192v121.805c-105.961-2.441-207.19-44.364-283.851-117.554l86.355-86.406zM719.966 225.31c-53.722-50.364-123.913-79.501-197.513-81.98 0.009-0.064 0.009-0.128 0-0.192v-121.805c106.001 2.415 207.275 44.348 283.955 117.572l-86.443 86.404zM501.547 143.33c-73.604 2.475-143.804 31.612-197.533 81.98l-0.122-0.154-86.231-86.251c76.682-73.225 177.956-115.157 283.959-117.572v121.805c-0.034 0.060-0.060 0.124-0.073 0.192zM289.294 240.051c-50.355 53.722-79.483 123.904-81.964 197.495h-121.945c2.402-105.993 44.314-207.266 117.519-283.955l86.232 86.251c0.035 0.081 0.089 0.154 0.157 0.209zM816.67 437.547c-2.475-73.596-31.603-143.787-81.963-197.513 0.060-0.030 0.111-0.073 0.158-0.124l86.229-86.319c73.225 76.681 115.157 177.954 117.572 283.955h-121.997zM734.707 655.95c50.355-53.723 79.484-123.905 81.963-197.496h121.946c-2.432 105.961-44.343 207.197-117.521 283.869l-86.387-86.372zM522.453 752.67c73.596-2.477 143.787-31.605 197.513-81.964l0.141 0.157 86.217 86.249c-76.668 73.194-177.903 115.118-283.87 117.554v-121.805c0.009-0.063 0.009-0.128 0-0.192z" />
<glyph unicode="&#xe92a;" glyph-name="sicbo" d="M593.792 417.933v-284.74c0-29.692-11.793-58.125-32.785-79.113-20.945-20.949-49.421-32.747-79.074-32.747h-284.738c-29.694 0-58.127 11.797-79.116 32.747-20.948 20.988-32.745 49.421-32.745 79.113v284.74c0 29.653 11.796 58.129 32.745 79.074 20.989 20.992 49.422 32.785 79.116 32.785 80.784 0 203.954 0 284.738 0 29.653 0 58.129-11.793 79.074-32.785 20.992-20.945 32.785-49.421 32.785-79.074zM481.933 173.871c0 22.455-18.223 40.678-40.678 40.678-22.452 0-40.675-18.223-40.675-40.678 0-22.451 18.223-40.678 40.675-40.678 22.455 0 40.678 18.227 40.678 40.678zM237.871 214.549c-22.453 0-40.677-18.223-40.677-40.678 0-22.451 18.223-40.678 40.677-40.678s40.677 18.227 40.677 40.678c0 22.455-18.223 40.678-40.677 40.678zM339.564 316.241c-22.453 0-40.677-18.223-40.677-40.678 0-22.451 18.223-40.674 40.677-40.674s40.677 18.223 40.677 40.674c0 22.455-18.223 40.678-40.677 40.678zM441.254 417.933c-22.452 0-40.675-18.223-40.675-40.678 0-22.451 18.223-40.674 40.675-40.674 22.455 0 40.678 18.223 40.678 40.674 0 22.455-18.223 40.678-40.678 40.678zM278.548 377.254c0 22.455-18.223 40.678-40.677 40.678s-40.677-18.223-40.677-40.678c0-22.451 18.223-40.674 40.677-40.674s40.677 18.223 40.677 40.674zM370.763 570.471l82.861 230.19c10.044 27.945 30.788 50.724 57.638 63.334 26.803 12.651 57.596 14.115 85.5 4.068 76.028-27.376 191.915-69.070 267.9-96.445 27.947-10.047 50.722-30.752 63.334-57.598 12.651-26.847 14.114-57.598 4.066-85.503-27.375-76.025-69.069-191.913-96.444-267.936-10.048-27.908-30.754-50.684-57.6-63.334-26.846-12.612-57.596-14.076-85.5-4.028-1.468 0.529-24.529 7.932-58.048 19.281v105.434c0 40.431-16.068 79.236-44.702 107.836-28.599 28.635-67.405 44.702-107.836 44.702h-111.17zM744.137 436.723c7.607 21.154-3.379 44.463-24.486 52.070-21.111 7.603-44.463-3.379-52.028-24.491-7.607-21.15 3.375-44.459 24.486-52.066s44.463 3.379 52.028 24.486zM658.389 618.917c-21.111 7.607-44.42-3.376-52.028-24.528-7.603-21.111 3.379-44.419 24.491-52.026s44.459 3.376 52.066 24.488c7.603 21.111-3.379 44.46-24.529 52.066zM621.658 696.976c7.607 21.111-3.375 44.46-24.486 52.066-21.154 7.566-44.463-3.376-52.066-24.528-7.607-21.111 3.375-44.419 24.486-52.026 21.15-7.607 44.459 3.376 52.066 24.488z" />
<glyph unicode="&#xe92b;" glyph-name="cup-final" d="M267.87 550.65c47.067-96.307 155.509-175.539 204.13-207.584v-85.83l-193.154-115.901h478.447l-194.627 116.778v84.954c48.621 32.058 157.066 111.29 204.131 207.594 160.48 16.877 203.869 211.072 203.869 316.007 0 12.023-4.774 23.554-13.277 32.056s-20.032 13.278-32.054 13.278h-816.001c-12.023 0-23.554-4.776-32.056-13.278s-13.278-20.032-13.278-32.056c0-104.935 43.39-299.131 203.87-316.017zM789.334 650.245v171.088h87.165c-6.874-54.292-27.213-141.491-87.165-171.088zM245.333 821.333v-171.088c-59.959 29.597-80.297 116.818-87.165 171.088h87.165zM945.6 198.4c-11.453 0.013-22.435 4.566-30.534 12.666s-12.653 19.082-12.666 30.534c0 3.818-1.517 7.482-4.218 10.182s-6.365 4.218-10.182 4.218c-3.818 0-7.482-1.517-10.182-4.218s-4.218-6.365-4.218-10.182c-0.013-11.453-4.566-22.435-12.666-30.534s-19.082-12.653-30.534-12.666c-3.818 0-7.482-1.517-10.182-4.218s-4.218-6.365-4.218-10.182c0-3.818 1.517-7.482 4.218-10.182s6.365-4.218 10.182-4.218c11.453-0.013 22.435-4.566 30.534-12.666s12.653-19.082 12.666-30.534c0-3.818 1.517-7.482 4.218-10.182s6.365-4.218 10.182-4.218c3.818 0 7.482 1.517 10.182 4.218s4.218 6.365 4.218 10.182c0.013 11.453 4.566 22.435 12.666 30.534s19.082 12.653 30.534 12.666c3.818 0 7.482 1.517 10.182 4.218s4.218 6.365 4.218 10.182c0 3.818-1.517 7.482-4.218 10.182s-6.365 4.218-10.182 4.218zM901.334 554.336c-5.942 0-11.638-2.358-15.84-6.56s-6.56-9.898-6.56-15.84c-0.019-17.818-7.107-34.896-19.706-47.494s-29.68-19.686-47.494-19.706c-5.942 0-11.638-2.358-15.84-6.56s-6.56-9.898-6.56-15.84c0-5.939 2.358-11.638 6.56-15.84 4.202-4.198 9.898-6.56 15.84-6.56 17.814-0.019 34.896-7.104 47.494-19.702s19.686-29.68 19.706-47.498c0-5.939 2.358-11.638 6.56-15.84 4.202-4.198 9.898-6.56 15.84-6.56 5.939 0 11.638 2.362 15.837 6.56 4.202 4.202 6.563 9.901 6.563 15.84 0.019 17.818 7.104 34.899 19.702 47.498s29.68 19.683 47.498 19.702c5.939 0 11.638 2.362 15.837 6.56 4.202 4.202 6.563 9.901 6.563 15.84 0 5.942-2.362 11.638-6.563 15.84-4.198 4.202-9.898 6.56-15.837 6.56-17.818 0.019-34.899 7.107-47.498 19.706s-19.683 29.677-19.702 47.494c0 5.942-2.362 11.638-6.563 15.84-4.198 4.202-9.898 6.56-15.837 6.56zM208 296c0 4.669-1.854 9.146-5.155 12.445-3.301 3.302-7.777 5.155-12.445 5.155-13.999 0.016-27.42 5.584-37.318 15.482s-15.467 23.318-15.482 37.318c0 4.669-1.854 9.146-5.155 12.445-3.301 3.302-7.777 5.155-12.445 5.155s-9.144-1.853-12.445-5.155c-3.3-3.299-5.155-7.776-5.155-12.445-0.015-14-5.583-27.421-15.482-37.318s-23.32-15.466-37.318-15.482c-4.668 0-9.144-1.853-12.445-5.155-3.3-3.299-5.155-7.776-5.155-12.445s1.854-9.146 5.155-12.445c3.301-3.302 7.777-5.155 12.445-5.155 13.999-0.016 27.42-5.584 37.318-15.482s15.467-23.318 15.482-37.318c0-4.669 1.854-9.146 5.155-12.445 3.301-3.302 7.777-5.155 12.445-5.155s9.144 1.853 12.445 5.155c3.3 3.299 5.155 7.776 5.155 12.445 0.015 14 5.583 27.421 15.482 37.318s23.32 15.466 37.318 15.482c4.668 0 9.144 1.853 12.445 5.155 3.3 3.299 5.155 7.776 5.155 12.445zM246.062 24c0-12.022 4.776-23.555 13.278-32.054 8.502-8.502 20.033-13.28 32.056-13.28h453.334c12.022 0 23.552 4.778 32.054 13.28 8.502 8.499 13.28 20.032 13.28 32.054v88h-544.002v-88z" />
<glyph unicode="&#xe92c;" glyph-name="medal-semifinal" d="M195.25 526.749h-26.25v26.25c0 14.512-11.741 26.253-26.25 26.253s-26.25-11.741-26.25-26.253v-26.25h-26.25c-14.509 0-26.25-11.741-26.25-26.25s11.741-26.25 26.25-26.25h26.25v-26.25c0-14.509 11.741-26.25 26.25-26.25s26.25 11.741 26.25 26.25v26.25h26.25c14.509 0 26.25 11.741 26.25 26.25s-11.741 26.25-26.25 26.25zM933.75 104.998h-26.25v26.253c0 14.509-11.741 26.25-26.25 26.25-14.512 0-26.25-11.741-26.25-26.25v-26.253h-26.253c-14.509 0-26.25-11.738-26.25-26.25 0-14.509 11.741-26.25 26.25-26.25h26.253v-26.25c0-14.509 11.738-26.25 26.25-26.25 14.509 0 26.25 11.741 26.25 26.25v26.25h26.25c14.509 0 26.25 11.741 26.25 26.25 0 14.512-11.741 26.25-26.25 26.25zM933.75 262.499c14.496 0 26.25 11.754 26.25 26.25 0 14.499-11.754 26.253-26.25 26.253-14.499 0-26.25-11.754-26.25-26.253 0-14.496 11.75-26.25 26.25-26.25zM90.25 264.25c14.498 0 26.25 11.754 26.25 26.25 0 14.499-11.752 26.25-26.25 26.25s-26.25-11.75-26.25-26.25c0-14.496 11.753-26.25 26.25-26.25zM490.438 629.757c0.029-0.042 0.013-0.099 0.042-0.141 17.213 1.194 42.064 5.491 98.432-7.35l205.718 273.734h-112.87c-8.253 0-16.048-3.897-20.995-10.51l-148.822-197.988-148.707 197.988c-4.947 6.613-12.742 10.51-20.995 10.51h-112.879l206.348-274.538c18.019 4.154 36.326 6.733 54.73 8.294zM295.164 553.398c16.484 13.722 34.759 30.138 87.45 51.392l-218.852 291.21h-73.51c-9.947 0-19.021-5.614-23.482-14.509-4.434-8.895-3.486-19.534 2.487-27.48l225.908-300.612zM728.822 553.376l225.923 300.635c5.971 7.947 6.922 18.585 2.486 27.48-4.461 8.895-13.536 14.509-23.482 14.509h-73.52l-218.416-290.656c48.48-19.686 68.746-36.739 87.008-51.968zM512 88c-110.458 0-200 89.542-200 200s89.542 200 200 200c110.458 0 200-89.542 200-200s-89.542-200-200-200zM512 0c159.059 0 288 128.941 288 288s-128.941 288-288 288c-159.059 0-288-128.941-288-288s128.941-288 288-288zM688 288c0-97.203-78.797-176-176-176s-176 78.797-176 176c0 97.203 78.797 176 176 176s176-78.797 176-176z" />
<glyph unicode="&#xe92d;" glyph-name="aboutus" d="M732.335 323.354v-147.9c0-10.675-5.35-20.638-14.246-26.539 0 0-71.177-48.619-208.636-48.619s-208.636 48.619-208.636 48.619c-8.902 5.901-14.252 15.863-14.252 26.539v147.9c0 87.834 71.199 159.036 159.033 159.036h127.701c87.838 0 159.036-71.202 159.036-159.036zM509.453 800.798c72.397 0 131.234-50.344 131.234-131.523 0-45.629-19.998-91.266-50.505-120.527-22.554-21.641-50.65-34.517-80.73-34.517-30.084 0-58.176 12.877-80.725 34.517-30.508 29.26-50.507 74.897-50.507 120.527 0 81.179 58.827 131.523 131.232 131.523zM780.096 725.175c58.688 0 106.389-40.8 106.389-106.603 0-36.398-15.996-72.788-40.333-96.14-18.432-17.694-41.459-28.109-66.057-28.109-24.593 0-47.616 10.415-66.057 28.109-24.333 23.352-40.324 59.742-40.324 96.14 0 65.804 47.693 106.603 106.381 106.603zM238.804 725.175c58.689 0 106.381-40.8 106.381-106.603 0-36.398-15.986-72.788-40.326-96.14-18.44-17.694-41.464-28.109-66.056-28.109s-47.616 10.415-66.056 28.109c-24.339 23.352-40.326 59.742-40.326 96.14 0 65.804 47.692 106.603 106.381 106.603zM223.543 164.245c-96.035 3.354-145.615 37.521-145.615 37.521-8.903 5.901-14.252 15.863-14.252 26.539v79.13c0 87.829 71.206 159.036 159.033 159.036h32.187c6.465 0 12.838-0.388 19.097-1.139-31.919-38.545-51.108-88.017-51.108-141.978v-147.9c0-3.772 0.222-7.509 0.657-11.209zM744.905 465.331c6.268 0.751 12.638 1.139 19.106 1.139h32.179c87.834 0 159.031-71.206 159.031-159.036v-79.13c0-10.675-5.35-20.638-14.251-26.539 0 0-49.579-34.167-145.617-37.521 0.444 3.699 0.666 7.437 0.666 11.209v147.9c0 53.961-19.187 103.433-51.115 141.978z" />
<glyph unicode="&#xe92e;" glyph-name="bingo" d="M504.128 531.904c0-9.788 2.914-18.598 7.774-25.451 5.833-7.829 12.638-12.723 22.357-16.64 9.719-3.913 21.38-5.871 34.014-5.871 12.638 0 24.299 1.958 34.018 5.871 9.719 3.917 17.493 9.788 22.353 16.64 5.833 7.834 7.774 15.663 7.774 25.451 0 10.768-2.914 19.578-9.715 27.409-5.833 7.831-14.579 12.725-26.244 15.662 9.719 2.936 17.493 7.831 22.353 14.682 5.833 6.852 8.751 15.662 8.751 24.471s-2.918 17.619-7.778 24.471c-4.86 6.852-12.634 12.725-21.38 16.64s-19.439 5.873-31.1 5.873c-11.665 0-22.357-1.958-31.104-5.873s-16.521-8.809-21.38-16.64c-4.86-6.852-7.778-15.661-7.778-24.471s2.918-17.619 8.751-24.471c5.828-6.852 13.606-11.746 22.353-15.662-10.692-2.936-19.439-7.831-26.244-15.661-4.86-6.852-7.774-15.662-7.774-26.43zM537.173 610.213c0 7.831 2.914 14.682 7.774 18.598 5.833 3.915 12.638 6.852 22.357 6.852 9.715 0 16.521-1.958 22.353-6.852 5.828-3.916 7.774-10.767 7.774-18.598s-2.914-13.704-8.747-18.598c-5.833-4.894-12.634-7.831-22.353-9.788-9.719 0.979-16.525 4.894-22.353 9.788-3.891 4.894-6.805 10.767-6.805 18.598zM543.006 553.44c6.801 4.894 14.579 7.831 25.267 9.789 10.692-0.979 19.439-4.894 25.271-9.789 6.801-4.894 9.719-11.746 9.719-19.577 0-8.811-2.918-14.682-9.719-19.576-5.833-4.894-14.579-6.852-25.271-6.852-10.688 0-19.439 1.958-25.267 6.852-5.833 4.894-9.719 10.765-9.719 19.576 0 7.831 2.914 14.682 9.719 19.577zM804.446 293.069h-120.516v-25.451h86.502l-77.756-147.806h33.045l78.724 149.764v23.492zM538.931-42.667h-378.082c-18.142 0-32.849 15.010-32.849 33.28v403.285c0 12.723 9.719 22.511 22.354 22.511h401.399c11.661 0 22.353-9.788 22.353-22.511v-403.285c0-4.894-1.946-9.788-4.86-13.705-5.44-11.93-17.28-19.575-30.315-19.575zM169.792 10.193h361.549v290.714h-361.549v-290.714zM531.341 374.319h-361.549v-54.814h361.549v54.814zM657.66-16.593c-23.761 9.165-45.935 22.327-65.088 38.532v368.043c41.792 34.261 94.272 54.814 151.616 54.814 7.774 0 16.525 0 24.299-0.977 9.719-0.977 19.439-2.935 29.158-4.894 104.964-24.469 183.689-119.42 183.689-232.964 0-96.145-56.316-178.496-137.301-216.525-1.873-0.491-3.887-1.267-6.046-2.355-31.497-15.863-121.34-26.415-180.326-3.674zM745.161 346.914c-77.751 0-139.955-63.625-139.955-140.954s62.204-139.977 139.955-139.977c77.751 0 139.955 62.647 139.955 139.977 0 78.306-63.177 140.954-139.955 140.954zM372.921 436.958h158.42c-36.932 10.765-69.005 36.215-87.471 73.412-34.017 69.498-5.833 153.678 63.172 187.938s152.589 5.873 186.607-64.604c34.018-69.498 5.833-153.679-63.172-187.94-18.466-9.788-38.878-13.7-59.285-14.682 7.774-3.913 14.575-10.765 17.493-19.575 44.706 34.257 99.132 52.855 155.503 52.855 8.747 0 18.466-0.977 26.244-0.977 2.914 0 5.828-0.977 8.747-0.977 33.045 64.602 35.959 143.888 1.941 215.343-58.313 117.461-200.213 166.404-317.811 108.652-117.601-57.752-166.197-201.642-107.882-320.083 4.859-10.765 10.691-20.557 17.494-29.363zM224.22 285.231h51.511v-51.878h-51.511v51.878zM425.404 285.231h51.511v-51.878h-51.511v51.878zM325.297 285.231h51.511v-51.878h-51.511v51.878zM224.22 194.197h51.511v-51.878h-51.511v51.878zM425.404 194.197h51.511v-51.878h-51.511v51.878zM325.297 194.197h51.511v-51.878h-51.511v51.878zM224.22 101.21h51.511v-51.878h-51.511v51.878zM425.404 101.21h51.511v-51.878h-51.511v51.878zM325.297 101.21h51.511v-51.878h-51.511v51.878z" />
<glyph unicode="&#xe92f;" glyph-name="keno" d="M81.92 434.442c0.813 61.096 8.042 107.528 23.035 152.554 8.19 24.624 20.336 33.676 46.051 35.065l171.283 9.257c34.053 1.851 68.106 4.166 102.196 5.313 25.367 0.87 48.345-6.961 68.829-22.365 18.911-14.218 38.232-27.9 57.569-41.526 4.415-3.092 5.841-5.776 3.973-11.238-10.15-29.621-18.153-60.152-30.151-88.996-14.791-35.361-42.983-60.207-72.581-83.313-39.44-30.855-78.836-61.784-118.188-92.791-38.694-30.343-77.313-60.891-116.247-90.829-23.553-18.199-44.905-15.532-61.821 8.557-32.571 45.433-54.773 97.481-65.038 152.457-4.936 26.866-7.173 54.227-8.911 67.854zM637.53 510.87c26.735-19.608 53.391-38.38 79.090-58.245 16.638-12.96 27.582-30.585 34.513-50.471 19.894-56.91 39.248-114.008 59.474-170.787 7.008-19.718 2.773-36.139-10.461-51.098-37.548-42.418-81.215-76.943-132.35-101.437-57.737-27.644-118.596-42.045-182.8-40.288-10.412 0.25-20.705 2.261-30.45 5.943-18.747 7.258-25.235 24.068-18.838 47.079 19.3 69.317 38.834 138.564 58.606 207.745 8.888 31.027 17.801 62.112 28.451 92.57 12.202 34.935 33.608 63.259 65.204 83.624 16.97 10.945 32.961 23.441 49.562 35.365zM529.805 663.421c-30.429-0.537-61.374-2.907-90.587 7.109-24.568 8.424-48.323 19.587-71.728 31.010-31.742 15.515-62.856 32.418-94.155 48.747-1.948 0.925-3.838 1.971-5.657 3.129-16.158 11.349-16.971 24.901-0.888 36.435 32.26 23.124 68.236 38.879 106.079 50.283 44.824 13.59 91.657 19.321 138.43 16.94 29.581-1.462 58.679-5.554 86.893-14.459 23.31-7.406 33.718-25.16 27.12-48.784-9.245-33.325-20.095-66.409-30.282-99.567-2.441-7.943-5.194-15.792-7.397-23.809-1.442-5.554-4.489-7.22-9.961-7.128-15.864 0.259-31.875 0.093-47.866 0.093zM901.12 445.497c-2.257-22.348-4.067-44.732-6.898-67.002-2.273-17.904-15.233-23.179-29.745-12.292-27.288 20.455-54.702 40.727-81.211 62.222-18.043 14.59-30.118 34.271-37.732 56.099-9.114 26.141-17.138 52.687-25.162 79.2-0.233 1.616-0.082 3.265 0.446 4.81 0.524 1.545 1.413 2.943 2.585 4.077 29.581 22.087 59.032 44.174 89.072 65.52 18.784 13.33 37.749 7.258 47.567-13.792 23.13-48.8 36.327-101.722 38.822-155.682 0.352-7.684 0.909-15.348 1.352-23.011l0.905-0.147zM745.439 664.532c-17.564 0-35.123 0.13-52.67 0-4.952 0-7.393 1.037-9.019 6.443-10.818 37.213-22.184 74.259-33.276 111.416-2.662 9.035-0.741 17.625 6.562 23.531 7.95 6.443 18.022 8.257 26.841 2.814 20.873-12.959 42.521-25.068 61.174-40.841 23.851-20.291 44.925-43.711 67.109-65.835 1.651-1.835 3.133-3.817 4.42-5.924 11.37-16.663 4.805-30.548-15.639-31.473-18.489-0.759-36.975-0.167-55.464-0.167l-0.037 0.037z" />
<glyph unicode="&#xe930;" glyph-name="xocdia" d="M912.196 213.491l-92.813-151.735v136.644c0 40.256-32.768 73.003-73.024 73.003h-103.13l47.428 77.577c11.516 18.816 36.079 24.73 54.895 13.231l153.412-93.824c18.812-11.494 24.725-36.079 13.231-54.895zM656.474 141.871c-18.398 0-33.37-14.972-33.37-33.365 0-18.398 14.967-33.37 33.37-33.37 18.398 0 33.365 14.972 33.365 33.37 0 18.394-14.967 33.365-33.365 33.365zM746.368 238.332h-179.819c-22.050 0-39.923-17.873-39.923-39.923v-179.814c0-22.050 17.873-39.927 39.923-39.927h179.819c22.050 0 39.923 17.877 39.923 39.927v179.814c0 22.050-17.873 39.923-39.923 39.923zM656.461 42.052c-36.642 0-66.449 29.807-66.449 66.449 0 36.638 29.807 66.445 66.449 66.445 36.638 0 66.445-29.807 66.445-66.445 0-36.642-29.807-66.449-66.445-66.449zM837.022 499.089c-4.322 8.043-14.349 11.063-22.391 6.741l-34.505-18.505-181.739 338.892c-29.38 54.769-97.57 75.341-152.316 45.982l-280.774-150.559c-54.769-29.38-75.342-97.568-45.982-152.316l181.737-338.891-34.508-18.505c-8.063-4.322-11.082-14.349-6.761-22.391 2.977-5.585 8.684-8.747 14.576-8.747 6.399 0-30.265-18.748 555.903 295.889 8.043 4.318 11.081 14.349 6.758 22.409zM343.425 348.762c-8.067-4.322-18.085-1.271-22.394 6.763l-112.977 210.675c-4.317 8.051-1.29 18.077 6.761 22.394 8.051 4.315 18.077 1.29 22.394-6.761l112.977-210.675c4.315-8.051 1.288-18.078-6.761-22.396zM426.718 899.367l-274.093-147.003c0.248 38.333 20.572 75.858 57.643 95.728l104.825 56.216c37.071 19.869 79.559 16.044 111.625-4.941z" />
<glyph unicode="&#xe931;" glyph-name="taixiu" d="M896 718.932l-341.333 197.099c-12.971 7.489-27.686 11.432-42.667 11.432s-29.692-3.943-42.667-11.432l-341.332-197.099c-6.517-3.767-12.506-8.379-17.813-13.717l401.812-231.935 401.813 231.978c-5.308 5.323-11.298 9.921-17.813 13.675zM559.701 688.767c-14.737-7.509-31.044-11.424-47.582-11.424-16.542 0-32.849 3.915-47.586 11.424-26.389 15.232-26.667 39.979-0.448 55.211 14.793 7.51 31.147 11.424 47.735 11.424s32.943-3.914 47.731-11.424c5.76-1.958 10.761-5.666 14.31-10.605s5.466-10.865 5.483-16.947c0.013-6.082-1.869-12.017-5.393-16.976-3.52-4.959-8.503-8.694-14.251-10.682zM88.661 668.417c-2.184-7.588-3.304-15.443-3.328-23.339v-394.156c0.008-14.972 3.954-29.679 11.444-42.641s18.257-23.727 31.223-31.215l341.333-197.056c6.682-3.853 13.858-6.775 21.333-8.683v465.067l-402.005 232.022zM181.44 426.496c-11.59 7.509-21.233 17.66-28.139 29.623-6.905 11.959-10.875 25.387-11.584 39.177 0 25.216 17.92 35.371 40 22.635 11.532-7.501 21.129-17.621 28.006-29.538s10.841-25.289 11.567-39.027c-0.064-25.387-17.899-35.499-39.851-22.869zM277.333 257.408c-11.592 7.514-21.236 17.668-28.141 29.632s-10.874 25.395-11.581 39.189c0 25.195 17.899 35.371 39.979 22.613 11.543-7.492 21.147-17.613 28.029-29.53s10.845-25.293 11.566-39.036c-0.128-25.365-17.963-35.52-39.851-22.869zM373.163 88.341c-11.59 7.509-21.233 17.66-28.139 29.623-6.905 11.959-10.875 25.387-11.584 39.177 0 25.216 17.899 35.371 39.979 22.635 11.539-7.497 21.141-17.617 28.022-29.534s10.847-25.289 11.572-39.031c-0.128-25.365-17.984-35.541-39.915-22.869h0.064zM935.339 668.417l-402.005-232.086v-465.067c7.475 1.907 14.652 4.83 21.333 8.683l341.333 197.12c12.971 7.488 23.744 18.261 31.232 31.232 7.492 12.975 11.435 27.691 11.435 42.667v394.113c-0.026 7.896-1.143 15.75-3.328 23.339zM666.539 415.765c22.080 12.8 39.915 2.581 39.979-22.784-0.708-13.773-4.676-27.183-11.575-39.13-6.895-11.947-16.529-22.084-28.105-29.585-21.931-12.672-39.915-2.581-40 22.613 0.717 13.803 4.693 27.243 11.601 39.215s16.55 22.14 28.143 29.67h-0.043zM667.307 141.291c-21.931-12.651-39.915-2.581-39.979 22.635 0.721 13.79 4.698 27.213 11.601 39.172 6.903 11.955 16.542 22.11 28.122 29.628 22.080 12.8 39.915 2.581 40-22.784-0.742-13.76-4.723-27.153-11.622-39.083s-16.521-22.063-28.079-29.568h-0.043zM825.856 507.733c22.080 12.8 39.915 2.581 40-22.784-0.73-13.764-4.71-27.166-11.614-39.095-6.903-11.934-16.538-22.063-28.109-29.555-21.952-12.672-39.787-2.496-39.851 22.699 0.7 13.769 4.651 27.174 11.529 39.121s16.491 22.097 28.045 29.615zM826.645 233.259c-21.931-12.672-39.765-2.496-39.851 22.699 0.695 13.773 4.651 27.183 11.533 39.13s16.499 22.093 28.062 29.606c22.080 12.8 39.915 2.581 39.979-22.784-0.725-13.769-4.702-27.166-11.61-39.1-6.903-11.934-16.538-22.059-28.113-29.551z" />
<glyph unicode="&#xe932;" glyph-name="baccarat" d="M883.669 816.906l-321.779 56.739c-36.194 6.382-70.707-17.785-77.086-53.977l-3.046-17.272c46.532-5.733 85.85-39.256 98.227-85.448l19.665-73.392c10.411 4.515 22.217 6.142 34.227 4.023 22.797-4.020 40.286-20.425 46.801-41.070 13.184 17.172 35.226 26.607 58.022 22.586 32.623-5.753 54.409-36.865 48.657-69.49-12.501-70.889-88.572-127.866-124.672-151.303l55.117-205.705c2.953-11.025 4.186-22.11 3.913-32.986l46.374-8.175c36.194-6.383 70.707 17.783 77.086 53.978l92.467 524.401c6.383 36.195-17.783 70.708-53.973 77.090zM531.78 704.029c-7.97 29.73-34.854 49.338-64.235 49.337-5.7 0-11.499-0.738-17.267-2.283l-315.608-84.567c-35.498-9.512-56.565-46-47.053-81.498l137.818-514.349c7.967-29.73 34.852-49.335 64.233-49.335 5.7 0 11.497 0.738 17.263 2.283l315.609 84.57c35.499 9.51 56.567 45.999 47.053 81.498l-137.813 514.346zM286.184 352.444c-5.352 4.71-7.35 12.173-5.070 18.923l48.26 142.895c4.037 11.955 18.94 15.949 28.413 7.616l113.244-99.622c5.35-4.71 7.347-12.173 5.069-18.923l-48.26-142.899c-4.036-11.951-18.939-15.949-28.413-7.612l-113.243 99.622z" />
<glyph unicode="&#xe933;" glyph-name="game" horiz-adv-x="1088" d="M806.694 563.646c-29.754 0-53.958-24.208-53.958-53.96 0-29.754 24.205-53.96 53.958-53.96s53.958 24.208 53.958 53.96c0 29.752-24.205 53.96-53.958 53.96zM1053.005 348.192l-57.664 313.188c-13.645 74.14-78.138 127.952-153.344 127.952h-105.907c-7.206 0-14.176-2.596-19.629-7.312l-60.928-52.706h-223.071l-60.928 52.706c-5.452 4.716-12.418 7.312-19.626 7.312h-105.906c-75.206 0-139.702-53.81-153.348-127.952l-57.662-313.188c-17.604-95.603 44.242-187.661 139.282-207.206 66.65-13.702 134.086 11.168 175.99 64.896l65.868 84.461h255.74l65.869-84.461c41.651-53.402 108.928-78.682 175.987-64.896 94.816 19.501 156.922 111.398 139.277 207.206zM365.581 479.686h-43.466v-43.466c0-16.568-13.432-30-30-30s-30 13.432-30 30v43.466h-43.464c-16.568 0-30 13.432-30 30s13.432 30 30 30h43.466v43.468c0 16.568 13.432 30 30 30s30-13.432 30-30v-43.468h43.464c16.568 0 30-13.432 30-30s-13.432-30-30-30zM806.694 395.726c-62.835 0-113.958 51.122-113.958 113.96s51.117 113.96 113.958 113.96c62.835 0 113.958-51.122 113.958-113.96 0-62.84-51.117-113.96-113.958-113.96z" />
<glyph unicode="&#xe934;" glyph-name="p2p" d="M102.4 264.517c2.821 13.025 4.83 26.294 8.614 39.058 26.095 88.128 112.404 148.388 204.775 143.391 97.508-5.276 176.858-73.006 193.275-165 19.558-109.624-53.036-211.809-165.591-233.009-106.002-19.973-213.744 49.935-235.921 153.137-1.892 8.75-3.446 17.58-5.151 26.378 0 12.009 0 24.036 0 36.045zM287.752 114.327c0.643-0.294 1.285-0.573 1.925-0.868 31.468 53.852 62.95 107.689 95.176 162.821h-75.786c3.953 34.831 7.821 68.974 11.689 103.119-0.694 0.179-1.367 0.358-2.061 0.556-29.422-46.218-58.862-92.436-89.298-140.26h79.012c-7.009-42.532-13.832-83.95-20.657-125.368zM921.569 629.873c-2.212-10.929-3.953-21.988-6.738-32.768-23.258-90.209-108.536-152.532-204.27-149.517-96.307 3.031-177.126 70.449-194.591 162.312-21.146 111.197 51.548 214.398 165.896 235.566 105.341 19.48 211.53-49.807 234.552-153.121 1.958-8.765 3.446-17.613 5.169-26.427l-0.018-36.045zM742.753 533.143c9.595 2.883 18.614 4.964 27.144 8.259 28.493 11.008 43.694 32.978 44.116 62.618 0.44 29.655-14.999 49.101-42.309 59.784-13.445 5.258-27.953 7.931-41.905 11.976-9.103 2.639-18.58 4.751-26.924 8.929-3.75 1.869-6.925 8.11-7.076 12.485-0.136 3.523 3.85 8.716 7.432 10.551 14.794 7.586 29.911-0.147 32.835-15.973 0.184-0.983 0.76-1.902 1.098-2.703h73.083c-0.947 6.42-1.285 12.367-2.737 18.054-7.601 29.671-28.915 45.727-58.002 53.296-5.624 1.458-7.16 3.588-6.907 8.782 0.371 8.077 0.102 16.187 0.102 24.444h-54.894v-28.655c-12.093-4.768-23.276-7.946-33.172-13.353-23.816-13.009-34.22-33.898-33.39-59.998 0.809-25.459 12.869-44.774 37.123-54.82 14.577-6.029 30.505-8.929 45.722-13.565 9.019-2.734 18.173-5.455 26.652-9.403 5.66-2.639 7.905-8.504 6.318-14.779-1.605-6.39-6.656-9.108-12.92-10.109-16.942-2.703-24.509 2.509-30.472 20.972h-74.586c0.963-6.684 1.352-12.68 2.737-18.463 7.145-29.77 27.953-46.333 57.121-54.083 6.469-1.72 8.512-4.293 8.056-10.568-0.591-8.077-0.151-16.22-0.151-24.658h55.923l-0.018 30.981zM582.907 38.42c-27.85 15.862-55.365 32.325-83.707 47.316-12.093 6.39-12.531 17.073 0 23.544 27.515 14.221 54.031 30.244 81.006 45.466 12.244 6.912 19.389 2.949 19.456-10.65 0.018-4.557 0-9.111 0-15.795 18.394 6.374 26.516 11.011 42.714 18.202 113.452 50.414 179.354 118.881 199.148 238.449 2.043 12.337 2.583 24.952 3.277 37.453 0.963 17.106 12.718 28.787 29.286 28.475 16.333-0.312 28.646-12.746 27.971-29.655-4.746-119.091-53.64-200.028-148.746-275.441-45.788-36.306-89.060-59.835-146.706-72.448-5.676-1.247-6.892-3.441-7.13-8.635-0.404-8.799-1.974-17.531-3.039-26.296l-13.53 0.015zM421.125 849.076c28.864-16.335 57.731-32.685 86.595-49.020 1.705-0.967 3.512-1.786 5.084-2.9 7.196-5.063 7.094-13.598-0.625-18.022-29.036-16.646-58.153-33.177-87.373-49.528-9.121-5.112-16.671-0.508-17.042 9.912-0.102 2.719 0 5.456 0 8.192 0 2.425 0 4.85 0 8.863-8.563-2.376-16.351-4.047-23.764-6.684-129.919-46.383-170.364-117.664-192-250.684-1.841-11.287-2.382-22.789-2.922-34.225-0.828-17.613-12.6-29.507-29.456-29.112-16.586 0.376-28.595 12.941-28.020 30.505 2.905 88.635 14.861 162.516 73.199 230.82 56.008 65.6 108.954 95.474 194.604 114.692 6.994 1.573 9.306 4.358 8.445 10.895-0.489 3.752 0.287 7.667-0.169 11.436-0.76 6.357 1.774 11.059 6.689 14.86 2.245 0 4.508 0 6.756 0z" />
<glyph unicode="&#xe935;" glyph-name="bell" d="M512.009-10.667c50.543 0 91.895 41.353 91.895 91.895h-183.795c0-24.371 9.681-47.744 26.918-64.981 17.233-17.233 40.606-26.914 64.981-26.914zM787.699 265.024v229.747c0 141.061-75.358 259.149-206.771 290.394v31.245c0 38.137-30.784 68.923-68.919 68.923-38.14 0-68.924-30.786-68.924-68.923v-31.245c-131.874-31.245-206.771-148.874-206.771-290.394v-229.747l-82.381-82.381c-6.093-6.093-9.516-14.357-9.516-22.972 0-17.946 14.546-32.491 32.491-32.491h670.196c17.946 0 32.491 14.545 32.491 32.491 0 8.614-3.422 16.879-9.515 22.972l-82.381 82.381z" />
<glyph unicode="&#xe936;" glyph-name="bell-active" d="M267.555 778.912c20.369 19.143 23.315 51.864 3.549 71.63-15.977 15.977-41.473 17.84-58.276 2.735-81.738-73.483-137.977-174.009-154.421-287.514-3.77-26.023 17.435-48.020 43.73-48.020 24.497 0 44.438 19.21 48.547 43.36 7.306 42.944 21.806 84.458 42.986 122.761 19.59 35.426 44.544 67.473 73.885 95.048zM873.276 560.98c4.122-24.094 24.034-43.238 48.482-43.238 26.33 0 47.539 22.072 43.695 48.122-16.734 113.373-72.883 213.791-154.197 287.236-16.815 15.189-42.402 13.302-58.372-2.778-19.567-19.707-16.657-52.171 3.541-71.236 29.35-27.709 54.306-59.877 73.899-95.411 21.12-38.302 35.605-79.786 42.953-122.697zM787.695 494.771c0 141.061-75.354 259.149-206.767 290.394v31.245c0 38.137-30.784 68.923-68.924 68.923-38.135 0-68.924-30.786-68.924-68.923v-31.245c-131.872-31.245-206.768-148.874-206.768-290.394v-229.747l-82.381-82.381c-6.093-6.093-9.516-14.357-9.516-22.972 0-17.946 14.547-32.491 32.491-32.491h670.199c17.946 0 32.491 14.545 32.491 32.491 0 8.614-3.422 16.879-9.515 22.972l-82.385 82.381v229.747zM512.004-10.667c6.434 0 12.407 0.461 18.381 1.839 29.867 6.43 54.217 26.65 66.163 54.217 4.595 11.029 6.895 22.976 6.895 35.84h-183.796c0.46-50.543 41.353-91.895 92.357-91.895z" />
<glyph unicode="&#xe937;" glyph-name="checks" d="M598.438 617.159l-358.399-351.999c-5.985-5.888-14.045-9.186-22.44-9.186s-16.455 3.298-22.44 9.186l-153.6 150.839c-2.997 2.944-5.384 6.455-7.025 10.325-1.641 3.866-2.504 8.021-2.539 12.224s0.758 8.371 2.333 12.267c1.576 3.9 3.903 7.445 6.85 10.445 2.947 2.995 6.455 5.38 10.325 7.023s8.024 2.505 12.227 2.539c4.203 0.034 8.372-0.755 12.268-2.334 3.896-1.574 7.444-3.904 10.441-6.848l131.16-128.802 336 330.001c6.059 5.952 14.229 9.253 22.724 9.178 4.203-0.037 8.358-0.902 12.228-2.545s7.381-4.033 10.325-7.032c2.948-2.999 5.278-6.55 6.852-10.449s2.364-8.070 2.325-12.274c-0.034-4.205-0.9-8.361-2.543-12.231s-4.032-7.379-7.031-10.326h-0.043zM982.839 662.439c-2.944 3.002-6.455 5.393-10.325 7.038s-8.026 2.511-12.233 2.548c-4.203 0.037-8.375-0.755-12.275-2.331s-7.45-3.905-10.445-6.854l-336-330.001-75.324 74.001c-6.054 5.948-14.229 9.242-22.716 9.165-8.486-0.081-16.597-3.529-22.541-9.587-5.948-6.054-9.246-14.225-9.165-22.716 0.077-8.486 3.524-16.597 9.583-22.541l97.719-96c5.986-5.888 14.046-9.186 22.443-9.186 8.393 0 16.452 3.298 22.438 9.186l358.4 351.999c3.004 2.943 5.397 6.449 7.049 10.318 1.647 3.869 2.517 8.025 2.556 12.23 0.043 4.206-0.747 8.378-2.321 12.278-1.57 3.9-3.895 7.453-6.844 10.453z" />
<glyph unicode="&#xe938;" glyph-name="bell-off" d="M877.95 141.424l-676.825 698.42-58.354-58.355 128.656-128.656v-0.46c-23.893-45.489-36.759-99.249-36.759-157.145v-229.744l-91.897-91.898v-45.949h630.876l91.898-91.897 58.354 58.354-45.949 47.328zM510.361-10.667c51.003 0 91.898 40.894 91.898 91.898h-183.795c0-51.004 40.895-91.898 91.898-91.898zM786.053 325.678v169.091c0 141.522-75.357 259.151-206.77 290.396v31.246c0 38.137-30.785 68.923-68.923 68.923s-68.923-30.786-68.923-68.923v-31.246c-6.893-1.378-13.326-3.676-19.299-5.514-4.594-1.378-9.189-3.216-13.785-5.054h-0.459c-0.46 0-0.46 0-0.919-0.46-10.569-4.135-21.136-9.19-31.245-14.244 0 0-0.46 0-0.46-0.46l410.782-433.756z" />
<glyph unicode="&#xe939;" glyph-name="deposit" d="M633.418 400.467c-18.179 0-32.915-14.739-32.915-32.915 0-54.534-44.208-98.746-98.742-98.746s-98.742 44.211-98.742 98.746c0 18.176-14.736 32.915-32.915 32.915s-32.915-14.739-32.915-32.915c0-90.89 73.68-164.573 164.57-164.573s164.573 73.683 164.573 164.573c0.003 18.176-14.733 32.915-32.912 32.915zM656.688 818.707l-131.658 131.656c-12.854 12.85-33.69 12.85-46.541 0l-131.658-131.658c-12.627-13.076-12.266-33.912 0.81-46.54 12.755-12.32 32.976-12.32 45.734 0l75.472 75.473v-447.173c0-18.179 14.736-32.915 32.915-32.915s32.912 14.739 32.912 32.915v447.173l75.472-75.473c6.173-6.173 14.541-9.643 23.27-9.645 18.179 0.004 32.912 14.744 32.909 32.921-0.003 8.727-3.469 17.095-9.638 23.266zM929.645 696.692h-296.227c-18.179 0-32.915-14.736-32.915-32.915s14.736-32.914 32.915-32.914h101.706c14.131-82.698 78.912-147.478 161.61-161.61v-203.411c-82.698-14.131-147.478-78.909-161.61-161.606h-466.724c-14.132 82.698-78.911 147.475-161.608 161.606v203.414c82.697 14.134 147.476 78.909 161.608 161.606h101.707c18.176 0 32.912 14.737 32.912 32.916s-14.736 32.915-32.912 32.915h-296.23c-18.179-0.002-32.915-14.738-32.915-32.915v-592.458c0-18.176 14.736-32.915 32.915-32.915h855.769c18.179 0 32.915 14.739 32.915 32.915v592.458c0 18.177-14.736 32.913-32.915 32.913zM106.789 630.864h94.070c-12.044-46.058-48.012-82.026-94.070-94.070v94.070zM106.789 104.237v94.070c46.058-12.045 82.026-48.013 94.070-94.070h-94.070zM896.733 104.237h-94.070c12.042 46.058 48.010 82.026 94.070 94.070v-94.070zM896.733 536.797c-46.061 12.045-82.029 48.013-94.070 94.070h94.070v-94.070z" />
<glyph unicode="&#xe93a;" glyph-name="gift" d="M845.914 682.411h-55.904c7.373 11.67 12.24 24.769 13.629 38.623 4.432 44.276-18.886 83.965-58.582 101.562-36.49 16.174-77.494 9.563-107.024-17.219l-70.589-63.975c-13.747 15.036-33.51 24.486-55.443 24.486-21.971 0-41.766-9.48-55.517-24.563l-70.678 64.059c-29.578 26.781-70.566 33.367-107.038 17.202-39.687-17.598-63.009-57.301-58.563-101.575 1.39-13.844 6.253-26.937 13.626-38.601h-55.743c-27.663 0-50.086-22.425-50.086-50.088v-75.13c0-13.83 11.212-25.043 25.044-25.043h717.913c13.83 0 25.043 11.213 25.043 25.043v75.13c0 27.663-22.422 50.088-50.086 50.088zM436.87 690.758v-8.347h-117.815c-31.128 0-55.626 29.019-47.852 61.428 3.424 14.273 13.726 26.439 27.051 32.598 18.297 8.457 38.565 5.742 53.931-8.168l84.704-76.773c-0.003-0.248-0.019-0.491-0.019-0.738zM753.942 727.684c-1.869-26.030-25.379-45.276-51.475-45.276h-115.338v8.348c0 0.296-0.016 0.588-0.019 0.884 19.187 17.394 60.813 55.122 83.389 75.587 12.832 11.629 30.787 17.058 47.382 12.108 23.814-7.104 37.802-27.357 36.061-51.649zM178.086 482.064v-367.306c0-27.664 22.424-50.086 50.087-50.086h233.737v417.392h-283.824zM562.086 482.064v-417.392h233.738c27.664 0 50.090 22.422 50.090 50.086v367.306h-283.827z" />
</font>
</defs>
</svg>
